Welcome Guest ( Log In | Register )

> Manipulation - Ecstasy (2015), Death Metal
post Nov 1 2015, 18:35:33
Post #1

Три Литра
***
Group: Завсегдатай
Posts: 251
Releases: 225
On Forums: 7 years 7 months
Thanks: 3211 time(s)
Russian Federation


(IMG:http://metalarea.org/images/audiocovers/2015_Nov/acov_tid255690_thumb.jpg)

*Artist: Manipulation
*Album: Ecstasy
*Year: 2015
*Genre: Death Metal
*Country: Poland (IMG:http://metalarea.org/forum/style_images/flags/Poland.png)
*Format: mp3@CBR320kbps
*Size: 91MB

Tracklist:
01. Insomnia
02. Sic Itur Ad Astra
03. Lifetime
04. Bad Boy
05. The Paradigm Of Existence
06. Sunset Over Vatican
07. Temples Of Vanity
08. Burn Motherfuckers!
09. Dźwięk Upadku
10. Ecstasy
******************************
Total playing time: 44:14


(IMG:http://metalarea.org/images/youtube.png)
(IMG:http://metalarea.org/images/youtube.png)


Technical info
(IMG:http://metalarea.org/images/spectrogram/2015_Nov/4ed793acb6aa0519494bc5e7c4139e75.png)
Input File: 03 Lifetime.mp3
Channels : 2
Sample Rate : 44100
Precision : 16-bit
Duration : 00:04:02.76 = 10705672 samples = 18206.9 CDDA sectors
File Size : 9.96M
Bit Rate : 328k
Sample Encoding: MPEG audio (layer I, II or III)
Comments :
Title=Lifetime
Artist=Manipulation
Album=Ecstasy
Tracknumber=3
Year=2015
Genre=Death Metal



Register


Go to the top of the page
  Insert nick Quick quote
+Quote Post
 
Start new topic
Replies (1 - 2)
Lion
post Nov 2 2015, 06:21:17
Post #2

Guests team






Register


Go to the top of the page
  Insert nick Quick quote
+Quote Post
post Nov 2 2015, 14:09:31
Post #3

Сталин придёт за тобой...
***********
Group: Металариец
Posts: 1,649
Releases: 0
From: Беларусь, Минск
On Forums: 12 years 2 months
Thanks: 784 time(s)
Belarus


Типичное такое "Г".


Thanks:
(1) AHBAnep,
Go to the top of the page
  Insert nick Quick quote
+Quote Post

Reply to this topicStart new topic
2 User(s) are reading this topic (2 Guests and 0 Anonymous Users)
0 Members:

 



- Lo-Fi Version Support form
Copyrights and abuse reports form
Time is now: 22nd September 2019 - 00:40:06