Welcome Guest ( Log In | Register )

> Nocny Kochanek - Hewi Metal (2015), Heavy Metal
post Nov 7 2015, 01:15:54
Post #1

Serial Uploader
Group Icon
Group: V.I.P
Posts: 34,367
Releases: 32594
From: Lithuania
On Forums: 10 years 9 months
Thanks: 371833 time(s)
Lithuania


(IMG:http://metalarea.org/images/audiocovers/2015_Nov/acov_tid256048_thumb.jpg)

*Artist: Nocny Kochanek
*Album: Hewi Metal
*Year: 2015
*Genre: Heavy Metal
*Country: Poland (IMG:http://metalarea.org/forum/style_images/flags/Poland.png)
*Format: mp3@CBR320kbps
*Size: 102MB

Tracklist:
01. Karate
02. Dej Mu
03. Wielki Wojownik
04. Andrzeju...
05. Zaplątany
06. Wakacyjny
07. Minerał Fiutta
08. Diabeł Z Piekła
09. Piątunio
10. Ostatni Numer
******************************
Total playing time: 40:35



Technical info
(IMG:http://metalarea.org/images/spectrogram/2015_Nov/42621822eaa456f84bf93ee4646c1342.png)
Input File: 06. Wakacyjny.mp3
Channels : 2
Sample Rate : 44100
Precision : 16-bit
Duration : 00:04:20.68 = 11495856 samples = 19550.8 CDDA sectors
File Size : 11.1M
Bit Rate : 340k
Sample Encoding: MPEG audio (layer I, II or III)
Comments :
Title=Wakacyjny
Artist=Nocny Kochanek
Album=Hewi Metal
Tracknumber=06/10
Year=2015



Register


Go to the top of the page
  Insert nick Quick quote
+Quote Post
 
Start new topic
Replies (1 - 4)
post Nov 7 2015, 07:11:32
Post #2

South Of Heaven /адепт ВУДУ
**************
Group: Металариец
Posts: 13,228
Releases: 7
On Forums: 8 years 11 months
Thanks: 4849 time(s)
Russian Federation


Косят под ИМ, польская мова напрягает.

https://www.youtube.com/watch?v=-WQKfo-sAZk
Go to the top of the page
  Insert nick Quick quote
+Quote Post
Lion
post Nov 7 2015, 07:12:41
Post #3

Guests team






Register
Go to the top of the page
  Insert nick Quick quote
+Quote Post
post Nov 10 2015, 14:47:29
Post #4

Перевозчик
**************
Group: Металариец
Posts: 2,895
Releases: 0
On Forums: 10 years 8 months
Thanks: 602 time(s)
Russian Federation


Музыка неплохая (мягко говоря, не инновационная, но приятная). А вот с языком - да, слушать из-за этого не особо хочется.

И да, обложка - зачёт.

Go to the top of the page
  Insert nick Quick quote
+Quote Post
post Mar 15 2019, 20:08:22
Post #5

на аватаре не я
**************
Group: Металариец
Posts: 4,617
Releases: 6
From: "Самопровозглашенная ДНР" (с)
On Forums: 9 years 8 months
Thanks: 2188 time(s)
Russian Federation


ЦИТАТА(zauber1 @ Nov 10 2015, 16:47:29) *
И да, обложка - зачёт.

Если правильно понимаю, чувак с обложки собирается присунуть свой ночной кочан сидящей напротив шлюховатой девице. Могу ошибаться. Всем добра (IMG:style_emoticons/default/9.gif)
Go to the top of the page
  Insert nick Quick quote
+Quote Post

Reply to this topicStart new topic
1 User(s) are reading this topic (1 Guests and 0 Anonymous Users)
0 Members:

 



- Lo-Fi Version Support form
Copyrights and abuse reports form
Time is now: 23rd March 2019 - 03:37:19