Welcome Guest ( Log In | Register )

> Принуждение к миру - Некросоциум (2015), Black Metal/Crust
post Nov 11 2015, 13:14:50
Post #1

Правь статус, ####!111
**************
Group: Металариец
Posts: 3,497
Releases: 1811
From: Земля
On Forums: 4 years 3 months
Thanks: 9752 time(s)
Russian Federation


(IMG:https://metalarea.org/images/audiocovers/2015_Nov/acov_tid256380_thumb.jpg)

*Artist: Принуждение к миру
*Album: Некросоциум
*Year: 2015
*Genre: Black Metal/Crust
*Country: Russian Federation (IMG:https://metalarea.org/forum/style_images/flags/Russian%20Federation.png)
*Format: mp3@CBR320kbps
*Size: 55MB

Tracklist:
1. Бунт 01:49
2. Чёрный флаг 01:49
3. Мир терпил и быдла 02:07
4. Деталь демографии 02:36
5. Девочка 01:58
6. Полиция мысли 02:37
7. Реактор 03:58
8. Некросоциум 05:55
******************************
Total playing time: 22:49



Technical info
(IMG:https://metalarea.org/images/spectrogram/2015_Nov/eb3dc3078366b438ed236ef8012c12eb.png)
Input File: Принуждение к миру - Некросоциум - 01 Бунт.mp3
Channels : 2
Sample Rate : 44100
Precision : 16-bit
Duration : 00:01:49.70 = 4837682 samples = 8227.35 CDDA sectors
File Size : 4.66M
Bit Rate : 340k
Sample Encoding: MPEG audio (layer I, II or III)
Comments :
Title=Бунт
Artist=Принуждение к миру
Album=Некросоциум
Tracknumber=1
Year=2015



Register


Go to the top of the page
  Insert nick Quick quote
+Quote Post
 
Start new topic
Replies (1 - 1)
post Jun 13 2018, 19:22:44
Post #2

_ - = # Thrashogolic # = - _ ... а давайте поржём все вместе
**************
Group: Металариец
Posts: 20,848
Releases: 4444
From: 404
On Forums: 8 years 3 days
Thanks: 27004 time(s)
Ukraine


У группы в этом году вышло новьё:

Паноптикум (Panoptikum)
(IMG:https://f4.bcbits.com/img/a1354510651_7.jpg)
Go to the top of the page
  Insert nick Quick quote
+Quote Post

Reply to this topicStart new topic
1 User(s) are reading this topic (1 Guests and 0 Anonymous Users)
0 Members:

 



- Lo-Fi Version Support form
Copyrights and abuse reports form
Time is now: 20th June 2018 - 00:46:31