Welcome Guest ( Log In | Register )

> Bode Preto - Mystic Massacre (2015), Black Metal
post Nov 12 2015, 14:59:46
Post #1

Три Литра
***
Group: Завсегдатай
Posts: 250
Releases: 225
On Forums: 7 years 6 months
Thanks: 3209 time(s)
Russian Federation


(IMG:http://metalarea.org/images/audiocovers/2015_Nov/acov_tid256463_thumb.jpg)

*Artist: Bode Preto
*Album: Mystic Massacre
*Year: 2015
*Genre: Black Metal
*Country: Brazil (IMG:http://metalarea.org/forum/style_images/flags/Brazil.png)
*Format: mp3@CBR320kbps
*Size: 62MB

Tracklist:
1. Intro
2. Deep Reality
3. Dark Obsession
4. Maze of Mirrors
5. Mystic Massacre
6. Dirty Honey
7. Absurds of Violence
8. Unknown Woman
9. Wraith / The Stage and the Meadow
10. Seizures of Fear
11. Parade
12. Feet of Clay
13. Lethargy
14. Outro
******************************
Total playing time: 29:33

Technical info
(IMG:http://metalarea.org/images/spectrogram/2015_Nov/3b760f96dc66ee8f5c0a0203346a772a.png)
Input File: 02-bode_preto-deep_reality-0a891491.mp3
Channels : 2
Sample Rate : 44100
Precision : 16-bit
Duration : 00:02:03.31 = 5438059 samples = 9248.4 CDDA sectors
File Size : 4.93M
Bit Rate : 320k
Sample Encoding: MPEG audio (layer I, II or III)
Comments :
Title=Deep Reality
Artist=Bode Preto
Album=Mystic Massacre
Tracknumber=2/14
Year=2015
Genre=9



Register


Go to the top of the page
  Insert nick Quick quote
+Quote Post
 
Start new topic
Replies (1 - 4)
post Nov 13 2015, 04:45:51
Post #2

Правь статус, ####!111
**************
Group: Металариец
Posts: 2,452
Releases: 11
From: Canada
On Forums: 12 years 3 months
Thanks: 1610 time(s)
Canada




Thanks:
Go to the top of the page
  Insert nick Quick quote
+Quote Post
post Jan 9 2017, 04:12:57
Post #3

aggresive exumator!
*********
Group: Металариец
Posts: 932
Releases: 0
On Forums: 7 years 11 months
Thanks: 34 time(s)
Unknown


reupload please


Thanks:
(1) wendigo,
Go to the top of the page
  Insert nick Quick quote
+Quote Post
post Jan 28 2018, 12:44:27
Post #4

Мегаманьяк
***********
Group: Металариец
Posts: 1,916
Releases: 0
From: MoscoW
On Forums: 12 years 9 months
Thanks: 1726 time(s)
Russian Federation


Перезалито на Yadi.sk - 63.1Mb:
Register

(IMG:style_emoticons/default/metaler.gif)


Thanks:
Go to the top of the page
  Insert nick Quick quote
+Quote Post
post Mar 16 2019, 12:09:03
Post #5

добрый мизантроп
***********
Group: Металариец
Posts: 1,707
Releases: 0
From: Минск
On Forums: 8 years 10 months
Thanks: 665 time(s)
Madagascar


(IMG:style_emoticons/default/true_black.gif)
Go to the top of the page
  Insert nick Quick quote
+Quote Post

Reply to this topicStart new topic
2 User(s) are reading this topic (2 Guests and 0 Anonymous Users)
0 Members:

 



- Lo-Fi Version Support form
Copyrights and abuse reports form
Time is now: 17th September 2019 - 15:51:16