Welcome Guest ( Log In | Register )

> Tombstalker - Black Crusades (2015), Old School Death Metal (D4)
post Nov 12 2015, 20:39:58
Post #1

Аннигилятор пивА
Group Icon
Group: V.I.P
Posts: 48,792
Releases: 14916
From: Koenigsberg - TILZIT
On Forums: 12 years 3 months
Thanks: 326971 time(s)
Russian Federation


(IMG:https://metalarea.org/images/audiocovers/2015_Nov/acov_tid256496_thumb.jpg)

*Artist: Tombstalker
*Album: Black Crusades
*Year: 2015
*Genre: Old School Death Metal
*Country: United States (IMG:https://metalarea.org/forum/style_images/flags/United%20States.png)
*Format: mp3@CBR320kbps
*Size: 103MB

Tracklist:
01. Forlorn Recollections
02. Chaos Undivided
03. Blood Thirster
04. Fate Weaver
05. Black Crusades
06. Soul Eater
07. Plague Father
08. Chaos Enthroned
******************************
Total playing time: 40:14



Extended info
Conqueror Horus - howls and bellows of torment, soul shred
Defiler - low frequency warfare, subliminal propaganda
Basilisk - relentless blitzkrieg


Technical info
(IMG:https://metalarea.org/images/spectrogram/2015_Nov/bd61b15e73e5f2907548ec2c802cb0c0.png)
Input File: 02. Chaos Undivided.mp3
Channels : 2
Sample Rate : 44100
Precision : 16-bit
Duration : 00:03:32.22 = 9358682 samples = 15916.1 CDDA sectors
File Size : 8.60M
Bit Rate : 324k
Sample Encoding: MPEG audio (layer I, II or III)
Comments :
Title=Chaos Undivided
Artist=Tombstalker
Album=Black Crusades
Tracknumber=2/8
Year=2015


Register


Go to the top of the page
  Insert nick Quick quote
+Quote Post
 
Start new topic
Replies (1 - 6)
post Nov 13 2015, 06:03:05
Post #2

Аннигилятор пивА
Group Icon
Group: V.I.P
Posts: 48,792
Releases: 14916
From: Koenigsberg - TILZIT
On Forums: 12 years 3 months
Thanks: 326971 time(s)
Russian Federation


тру дэт из затхлых катакомб тех времен когда дэт был неким симбиозом с трэшем и протоблэком, труба за 2011, с тех пор они немного потяжелели


Go to the top of the page
  Insert nick Quick quote
+Quote Post
post Nov 13 2015, 11:43:30
Post #3

ill-dis-punk
*******
Group: Металариец
Posts: 739
Releases: 7
From: Israel,Bat-Yam
On Forums: 12 years 2 weeks
Thanks: 143 time(s)
Israel


That's the best death album I've heard since the beginning of 2015. Damn, it's a bomb.
Go to the top of the page
  Insert nick Quick quote
+Quote Post
post Nov 13 2015, 13:38:43
Post #4

Dead Head Dead
*****
Group: Металариец
Posts: 450
Releases: 29
From: Hell
On Forums: 9 years 2 months
Thanks: 723 time(s)
Czech Republic


Go to the top of the page
  Insert nick Quick quote
+Quote Post
post Nov 29 2015, 18:18:52
Post #5

Правь статус, ####!111
**************
Group: Металариец
Posts: 3,297
Releases: 9
From: Москва и МО
On Forums: 12 years 2 months
Thanks: 807 time(s)
Russian Federation


О майн год! Какой шикарный звукан.
Однако, очень часто, на шикарном звукане прелести такого рода релизов заканчиваются.
К счастью, на данный релиз данное правило не распространяется. На альбоме представлен клевый зубодробильный материал. Дичайше порадовали американцы!


Thanks:
Go to the top of the page
  Insert nick Quick quote
+Quote Post
post Oct 11 2017, 22:51:11
Post #6

Два Литра
**
Group: Завсегдатай
Posts: 141
Releases: 0
From: Madrid
On Forums: 9 years 8 months
Thanks: 23 time(s)
Mexico


Links are dead! Can someone reup? Thanks people!
Go to the top of the page
  Insert nick Quick quote
+Quote Post
post Oct 12 2017, 06:46:19
Post #7

Пять Литров
*****
Group: Металариец
Posts: 466
Releases: 1
On Forums: 5 years 1 month
Thanks: 521 time(s)
Unknown


Register


Thanks:
Go to the top of the page
  Insert nick Quick quote
+Quote Post

Reply to this topicStart new topic
1 User(s) are reading this topic (1 Guests and 0 Anonymous Users)
0 Members:

 



- Lo-Fi Version Support form
Copyrights and abuse reports form
Time is now: 20th September 2018 - 11:38:59