Welcome Guest ( Log In | Register )

> Pastor - Evoke (2015), Traditional Doom/Heavy Metal
post Nov 14 2015, 22:14:25
Post #1

Аннигилятор пивА
Group Icon
Group: V.I.P
Posts: 46,692
Releases: 14016
From: Koenigsberg - TILZIT
On Forums: 11 years 11 months
Thanks: 310876 time(s)
Russian Federation


(IMG:https://metalarea.org/images/audiocovers/2015_Nov/acov_tid256629_thumb.jpg)

*Artist: Pastor
*Album: Evoke
*Year: 2015
*Genre: Traditional Doom/Heavy Metal
*Country: Austria (IMG:https://metalarea.org/forum/style_images/flags/Austria.png)
*Format: mp3@CBR320kbps
*Size: 70MB

Tracklist:
1. Voodoo 03:48
2. Drowning Thoughts 03:24
3. Wolf Vein 03:44
4. Wicked Whispers 05:11
5. Moving On 03:28
6. Devils Reef 04:35
7. Evoke 05:33
******************************
Total playing time: 29:43




Extended info
Brilliant album of classic retro metal! 70's influenced heavy rock grooves of doom!


Technical info
(IMG:https://metalarea.org/images/spectrogram/2015_Nov/54eeeb04168a555cbcb2d6636b04bc8a.png)
Input File: 02 - Drowning Thoughts.mp3
Channels : 2
Sample Rate : 44100
Precision : 16-bit
Duration : 00:03:24.56 = 9021140 samples = 15342.1 CDDA sectors
File Size : 8.18M
Bit Rate : 320k
Sample Encoding: MPEG audio (layer I, II or III)
Comments :
Title=Drowning Thoughts
Artist=Pastor
Album=Evoke
Tracknumber=2
Year=2015
Genre=Heavy Metal



Register


Вернуться к началу страницы
  Insert nick Quick quote
+Цитировать сообщение
 
Создать новую тему
Replies (1 - 7)
post Nov 16 2015, 14:10:55
Post #2

hearer & reader
**************
Group: Металариец
Posts: 6,216
Releases: 81
From: Moscow
On Forums: 10 years 8 months
Thanks: 6368 time(s)
Russian Federation


Промах - Австрия д.б.


Thanks:
Вернуться к началу страницы
  Insert nick Quick quote
+Цитировать сообщение
post Nov 16 2015, 14:55:46
Post #3

напряжный чувак (с)
***********
Group: Металариец
Posts: 1,773
Releases: 21
From: Киев
On Forums: 11 years 3 months
Thanks: 2296 time(s)
Ukraine


(IMG:http://cont.ws/uploads/posts2/105279.jpg)


Вернуться к началу страницы
  Insert nick Quick quote
+Цитировать сообщение
post Nov 16 2015, 15:20:02
Post #4

Аннигилятор пивА
Group Icon
Group: V.I.P
Posts: 46,692
Releases: 14016
From: Koenigsberg - TILZIT
On Forums: 11 years 11 months
Thanks: 310876 time(s)
Russian Federation


довели Украину, а раньше вместо кровавого пастора, пастора Шлага поминали...теперь всяких ублюдков
Вернуться к началу страницы
  Insert nick Quick quote
+Цитировать сообщение
post Nov 17 2015, 00:51:03
Post #5

напряжный чувак (с)
***********
Group: Металариец
Posts: 1,773
Releases: 21
From: Киев
On Forums: 11 years 3 months
Thanks: 2296 time(s)
Ukraine


Не больший ублюдок, чем практически любой другой политикан. (IMG:style_emoticons/default/smile4.gif)
Вернуться к началу страницы
  Insert nick Quick quote
+Цитировать сообщение
post Dec 24 2017, 19:33:24
Post #6

Group: Подсевший
Posts: 21
Releases: 0
On Forums: 5 months 23 hours
Thanks: 0 time(s)
Albania


Re up...., please!
Вернуться к началу страницы
  Insert nick Quick quote
+Цитировать сообщение
post Jan 12 2018, 21:24:59
Post #7

Group: Подсевший
Posts: 21
Releases: 0
On Forums: 5 months 23 hours
Thanks: 0 time(s)
Albania


Please, please re up! (IMG:style_emoticons/default/pray.gif)
Вернуться к началу страницы
  Insert nick Quick quote
+Цитировать сообщение
post Jan 13 2018, 06:37:40
Post #8

Going home. Flying high.
**************
Group: Металариец
Posts: 12,132
Releases: 0
From: The Land of Shadows
On Forums: 11 years 9 months
Thanks: 16614 time(s)
Russian Federation


from web
Register


Thanks:
(1) LuGaL,
Вернуться к началу страницы
  Insert nick Quick quote
+Цитировать сообщение

ОтветитьСоздать новую тему
2 User(s) are reading this topic (2 Guests and 0 Anonymous Users)
0 Members:

 



- Lo-Fi Version Support form
Copyrights and abuse reports form
Time is now: 24th May 2018 - 14:39:24