Welcome Guest ( Log In | Register )

> Hevilan - The End Of Time (2013), Progressive Power/Thrash Metal
post Nov 17 2015, 12:17:15
Post #1

Serial Uploader
Group Icon
Group: V.I.P
Posts: 35,606
Releases: 33815
From: Lithuania
On Forums: 11 years 1 month
Thanks: 389359 time(s)
Lithuania


(IMG:https://metalarea.org/images/audiocovers/2015_Nov/acov_tid256790_thumb.jpg)

*Artist: Hevilan
*Album: The End Of Time
*Year: 2013
*Genre: Progressive Power/Thrash Metal
*Country: Brazil (IMG:https://metalarea.org/forum/style_images/flags/Brazil.png)
*Format: mp3@CBR320kbps
*Size: 180MB

Tracklist:
01. Regenesis 04:02
02. Shades Of War 05:12
03. Minus Is Call 05:37
04. End Of Time 05:46
05. Desire Of Destruction 03:21
06. Sanctum Imperium 04:53
07. Dark Throne Of Babylon 03:56
08. Son Of Messiah 06:14
09. Loneliness 06:50
10. Shades Of War (Extended Version Feat. Warrel Dane) (Bonus Track) 06:06
11. Quest Of Illusion 2014 (Bonus Track) 06:07
******************************
Total playing time: 58:04

(IMG:https://metalarea.org/images/myspace.png)

(IMG:https://metalarea.org/images/youtube.png)

Extended info
CD-rip with scans


Technical info
(IMG:https://metalarea.org/images/spectrogram/2015_Nov/b3966bac313f4684496064444a110c5b.png)
Input File: 02. Shades Of War.mp3
Channels : 2
Sample Rate : 44100
Precision : 16-bit
Duration : 00:05:12.59 = 13785087 samples = 23444 CDDA sectors
File Size : 12.5M
Bit Rate : 320k
Sample Encoding: MPEG audio (layer I, II or III)
Comments :
Title=Shades Of War
Artist=Hevilan
Album=The End Of Time
Tracknumber=2
Year=2015



Register


Go to the top of the page
  Insert nick Quick quote
+Quote Post
 
Start new topic
Replies (1 - 4)
post Nov 17 2015, 17:44:30
Post #2

Ъ
**************
Group: Металариец
Posts: 9,587
Releases: 9
On Forums: 10 years 6 months
Thanks: 1866 time(s)
Sweden




Без откровений, но все прилежно.
Go to the top of the page
  Insert nick Quick quote
+Quote Post
Lion
post Nov 19 2015, 10:13:26
Post #3

Guests team






Register


Thanks:
Go to the top of the page
  Insert nick Quick quote
+Quote Post
post Aug 8 2017, 16:25:59
Post #4

Мегаманьяк
***********
Group: Металариец
Posts: 1,780
Releases: 0
On Forums: 6 years 8 months
Thanks: 2556 time(s)
Russian Federation


135 mb/320 кб/с
Register
Go to the top of the page
  Insert nick Quick quote
+Quote Post
post Jun 12 2019, 19:46:21
Post #5

Добрый
**************
Group: Металариец
Posts: 2,305
Releases: 0
On Forums: 1 year 2 weeks
Thanks: 1890 time(s)
Russian Federation


136 mb/320 kbps
Register
Go to the top of the page
  Insert nick Quick quote
+Quote Post

Reply to this topicStart new topic
1 User(s) are reading this topic (1 Guests and 0 Anonymous Users)
0 Members:

 



- Lo-Fi Version Support form
Copyrights and abuse reports form
Time is now: 17th July 2019 - 05:55:04