Welcome Guest ( Log In | Register )

> Cryptic Salve Band - Auld Rags [demo] (2010), Raw Black Metal/Punk
Jacktheripper666
post Nov 18 2015, 21:02:47
Post #1

Guests team






(IMG:http://metalarea.org/images/audiocovers/2015_Nov/acov_tid256891_thumb.jpg)

*Artist: Cryptic Salve Band
*Album: Auld Rags [demo]
*Year: 2010
*Genre: Raw Black Metal/Punk
*Country: United Kingdom (IMG:http://metalarea.org/forum/style_images/flags/United%20Kingdom.png)
*Format: mp3@CBR320kbps
*Size: 39MB

Tracklist:
1. Slow Poisoner 02:01
2. A Dozen Loads 02:27
3. Confiscate 01:24
4. Spine Op 02:18
5. Drained Bottle 05:48
6. Unitited 00:10
7. Contact History 02:19
******************************
Total playing time: 16:27

(IMG:http://metalarea.org/images/youtube.png)

Extended info
First project of Gareth Howells, member of Sump, Vanyar, Niderung, Arch Toll and other raw shit ...
Kiskass!


Technical info
(IMG:http://metalarea.org/images/spectrogram/2015_Nov/87c421ef102198a95c31cad4a6e5709d.png)
Input File: 02. A Dozen Loads.mp3
Channels : 2
Sample Rate : 44100
Precision : 16-bit
Duration : 00:02:27.74 = 6515290 samples = 11080.4 CDDA sectors
File Size : 6.05M
Bit Rate : 328k
Sample Encoding: MPEG audio (layer I, II or III)
Comments :
Title=A Dozen Loads
Artist=Cryptic Salve Band
Album=Auld Rags
Tracknumber=02
Year=2010
Genre=Raw Black Metal / Punk



Register


Go to the top of the page
  Insert nick Quick quote
+Quote Post
 
Start new topic
Replies (1 - 2)
Lion
post Nov 19 2015, 09:49:15
Post #2

Guests team






Register


Thanks:
Go to the top of the page
  Insert nick Quick quote
+Quote Post
post Feb 11 2019, 20:27:50
Post #3

Prisoner Of Our Time
**************
Group: Металариец
Posts: 4,642
Releases: 41
From: Луганск, 13 регион, экс-"404"
On Forums: 13 years 5 months
Thanks: 1324 time(s)
Papua New Guinea


please re-up
Go to the top of the page
  Insert nick Quick quote
+Quote Post

Reply to this topicStart new topic
1 User(s) are reading this topic (1 Guests and 0 Anonymous Users)
0 Members:

 



- Lo-Fi Version Support form
Copyrights and abuse reports form
Time is now: 22nd April 2019 - 05:41:52