Welcome Guest ( Log In | Register )

> The Meads Of Asphodel - All Things Bright & Shit [single] (2015), Avant-Garde Black Metal
post Nov 26 2015, 06:43:34
Post #1

Аннигилятор пивА
Group Icon
Group: V.I.P
Posts: 52,360
Releases: 16550
From: Koenigsberg - TILZIT
On Forums: 14 years 6 months
Thanks: 366542 time(s)
Russian Federation


(IMG:https://metalarea.org/images/audiocovers/2015_Nov/acov_tid257365_thumb.jpg)

*Artist: The Meads Of Asphodel
*Album: All Things Bright & Shit [single]
*Year: 2015
*Genre: Avant-Garde Black Metal
*Country: United Kingdom (IMG:https://metalarea.org/forum/style_images/flags/United%20Kingdom.png)
*Format: mp3@CBR320kbps
*Size: 28MB

Tracklist:
1. All Things Bright & Shit 06:00
2. The Song of a Hundred Roars 04:51
******************************
Total playing time: 10:51




Extended info
All Things Bright & Shit, first appeared on the Terrorizer covermount cd in December 2006.
And The Song of a Hundred Roars first appeared on the Terrorizer cd of December 2009
Many thanks to Metatron for agreeing to the release of this unholy single


Technical info
(IMG:https://metalarea.org/images/spectrogram/2015_Nov/131746b6d2755d27d58ef33b69290915.png)
Input File: 02 The Song of a Hundred Roars.mp3
Channels : 2
Sample Rate : 44100
Precision : 16-bit
Duration : 00:04:51.84 = 12870320 samples = 21888.3 CDDA sectors
File Size : 11.8M
Bit Rate : 323k
Sample Encoding: MPEG audio (layer I, II or III)
Comments :
Title=The Song of a Hundred Roars
Artist=The Meads Of Asphodel
Album=All Things Bright & Shit
Tracknumber=2
Year=2015



Register


Go to the top of the page
  Insert nick Quick quote
+Quote Post
 
Start new topic
Replies (1 - 1)
post Oct 18 2020, 00:24:35
Post #2

Девять Литров
*********
Group: Металариец
Posts: 931
Releases: 0
From: Warszawa
On Forums: 5 years 11 months
Thanks: 325 time(s)
Poland


Please re-up
Go to the top of the page
  Insert nick Quick quote
+Quote Post

Reply to this topicStart new topic
2 User(s) are reading this topic (2 Guests and 0 Anonymous Users)
0 Members:

 



- Lo-Fi Version Support form
Copyrights and abuse reports form
Time is now: 28th November 2020 - 03:34:38