Welcome Guest ( Log In | Register )

> Panphage & Jarnvidr - Gøthalandom [split] (2015), Black Metal | Black Metal
Jacktheripper666
post Nov 28 2015, 08:29:14
Post #1

Guests team






(IMG:http://metalarea.org/images/audiocovers/2015_Nov/acov_tid257469_thumb.jpg)

*Artist: Panphage & Jarnvidr
*Album: Gøthalandom [split]
*Year: 2015
*Genre: Black Metal | Black Metal
*Country: Sweden (IMG:http://metalarea.org/forum/style_images/flags/Sweden.png) | Sweden (IMG:http://metalarea.org/forum/style_images/flags/Sweden.png)
*Format: mp3@CBR320kbps
*Size: 145MB

Tracklist:
Panphage:
1. Söner av Osämjans Länder 06:00
2. Hagalaz Automat 06:00
3. Black Dawn Guerilla 05:12
4. Tag Till Vapen 06:15
5. Panphage/Jarnvidr - Gøthalandom 05:48
Jarnvidr:
6. Helveteseld Faller Från Himmelen 06:54
7. Hagelstorm 03:35
8. Klockringning i Dalen och Åkallan av Makterna 07:33
9. Det Svarta Vattnets Gåva 02:04
10. Från Svedjemark till Ovigd Jord 12:53
******************************
Total playing time: 1:02:14

Extended info
Ætergap Productions - ÆP 014
Heathen Black Metal Art!
KVLT!


Technical info
(IMG:http://metalarea.org/images/spectrogram/2015_Nov/8c01abaa971ea51b262b0fcbeb7545f5.png)
Input File: 02. Panphage - Hagalaz Automat.mp3
Channels : 2
Sample Rate : 44100
Precision : 16-bit
Duration : 00:06:00.29 = 15888833 samples = 27021.8 CDDA sectors
File Size : 14.5M
Bit Rate : 322k
Sample Encoding: MPEG audio (layer I, II or III)
Comments :
Title=Hagalaz Automat
Artist=Panphage
Album=GГёthalandom
Tracknumber=02/10
Year=2015
Genre=Black Metal



Register


This post has been edited by Borderline1991: Mar 27 2019, 10:44:10


Go to the top of the page
  Insert nick Quick quote
+Quote Post
 
Start new topic
Replies (1 - 3)
Lion
post Nov 28 2015, 14:06:39
Post #2

Guests team






Register


Go to the top of the page
  Insert nick Quick quote
+Quote Post
post Mar 27 2016, 10:24:59
Post #3

antithesis
**************
Group: Металариец
Posts: 3,457
Releases: 35
From: VRN
On Forums: 11 years 5 months
Thanks: 2206 time(s)
Russian Federation


мощный сплит. напоминает творчество Sir N.


Thanks:
Go to the top of the page
  Insert nick Quick quote
+Quote Post
post Mar 27 2016, 10:26:28
Post #4

the faceless one
Group Icon
Group: S-moderation team
Posts: 9,469
Releases: 1959
On Forums: 13 years 2 months
Thanks: 119396 time(s)
Russian Federation


Зеркало -

Register


Go to the top of the page
  Insert nick Quick quote
+Quote Post

Reply to this topicStart new topic
1 User(s) are reading this topic (1 Guests and 0 Anonymous Users)
0 Members:

 



- Lo-Fi Version Support form
Copyrights and abuse reports form
Time is now: 28th October 2021 - 21:51:26