Welcome Guest ( Log In | Register )

> Batushka - Litourgiya (2015), Black/Doom Metal
post Dec 4 2015, 11:29:10
Post #1

Serial Uploader
Group Icon
Group: V.I.P
Posts: 37,208
Releases: 35388
From: Lithuania
On Forums: 12 years 1 month
Thanks: 421292 time(s)
Lithuania


(IMG:http://metalarea.org/images/audiocovers/2015_Dec/acov_tid257830_thumb.jpg)

*Artist: Batushka
*Album: Litourgiya
*Year: 2015
*Genre: Black/Doom Metal
*Country: Poland (IMG:http://metalarea.org/forum/style_images/flags/Poland.png)
*Format: mp3@CBR320kbps
*Size: 106MB

Tracklist:
1. Yekteníya 1
2. Yekteníya 2
3. Yekteníya 3
4. Yekteníya 4
5. Yekteníya 5
6. Yekteníya 6
7. Yekteníya 7
8. Yekteníya 8
******************************
Total playing time: 41:16



Technical info
(IMG:http://metalarea.org/images/spectrogram/2015_Dec/afa3f63ab67f96e4fb2a6f1847adf47d.png)
Input File: 06 Yekteniya 6.mp3
Channels : 2
Sample Rate : 44100
Precision : 16-bit
Duration : 00:04:13.36 = 11173132 samples = 19001.9 CDDA sectors
File Size : 10.3M
Bit Rate : 327k
Sample Encoding: MPEG audio (layer I, II or III)
Comments :
Title=Yekteniya 6
Artist=BATUSHKA
Album=Litourgiya
Tracknumber=6
Year=2015



Register


Go to the top of the page
  Insert nick Quick quote
+Quote Post
7 Pages V  « < 5 6 7  
Start new topic
Replies (180 - 184)
post Jun 23 2020, 19:44:42
Post #181

ГОСПОДЬ
**************
Group: Металариец
Posts: 4,767
Releases: 163
On Forums: 9 years 10 months
Thanks: 6692 time(s)
Unknown


ЦИТАТА(Golodomor @ Jun 23 2020, 21:41:20) *
Да иди ты...к Никласу Кварвроту (IMG:style_emoticons/default/25.gif)

Мультфильм, который я бы ему хотел показать, на русском, и вряд ли он что то в нём поймёт

Go to the top of the page
  Insert nick Quick quote
+Quote Post
post Jun 25 2020, 10:13:47    Сейчас играет:  Ектения V Святый вход
Post #182

Group: Дух
Posts: 4
Releases: 0
On Forums: 1 year 1 week
Thanks: 0 time(s)
Russian Federation


1 и 5 треки прям зашли (благодаря 5 треку и скачал весь альбом) 4 и 2 более-менее.. не считаю альбом проходняком, меня он заинтересовал как-раз с точки зрения музыки а не пиара, видео вообще не видел пока весь альбом не прослушал раз 10
Go to the top of the page
  Insert nick Quick quote
+Quote Post
post Jun 25 2020, 10:23:03
Post #183

Правь статус (ну неее... лень-матушка)
**************
Group: Металариец
Posts: 13,518
Releases: 0
From: Киев
On Forums: 12 years 5 months
Thanks: 8168 time(s)
Unknown


ЦИТАТА(wolverine @ Jun 23 2020, 22:00:19) *
It seems this overhyped album is still popular. (IMG:style_emoticons/default/1488.gif)

Which means that it is not OVERhyped.
Go to the top of the page
  Insert nick Quick quote
+Quote Post
post Jun 30 2020, 15:42:19
Post #184

балабол
***********
Group: Металариец
Posts: 1,678
Releases: 1
From: РА-река
On Forums: 9 years 3 months
Thanks: 1420 time(s)
Russian Federation


Все таки проникся альбомом, хотя раньше отталкивал этот хайп вокруг них. Песнопения органично легли на музыку, вторая часть альбома, начиная с 5 трека, мне показалось более экспрессивной, гитарные партии разнообразны, стиль вокала правда мне такой не очень, но музыка на высоте!
Радует что в восточной Европе стали появляться такие крутые группы, наряду с Cult of Fire, Mgla.
Go to the top of the page
  Insert nick Quick quote
+Quote Post
post Jul 3 2020, 13:31:26
Post #185

Ледоруб
**************
Group: Металариец
Posts: 25,978
Releases: 0
From: Санкт-Петербург
On Forums: 10 years 9 months
Thanks: 9059 time(s)
Russian Federation


Вот у этого альбома очень плохое звучание при хорошем материале. Можно его через нейросеть пропустить, чтобы это можно было слушать? Soyuz - Red Blood, White Frost (2020)
Go to the top of the page
  Insert nick Quick quote
+Quote Post

7 Pages V  « < 5 6 7
Reply to this topicStart new topic
2 User(s) are reading this topic (2 Guests and 0 Anonymous Users)
0 Members:

 



- Lo-Fi Version Support form
Copyrights and abuse reports form
Time is now: 8th July 2020 - 23:39:06