Welcome Guest ( Log In | Register )

> Devoured Flesh - Gallery Of The Macabre [ep] (2015), Brutal Death Metal/Goregrind
post Dec 7 2015, 15:00:29
Post #1

Serial Uploader
Group Icon
Group: V.I.P
Posts: 32,712
Releases: 31010
From: Lithuania
On Forums: 10 years 1 week
Thanks: 355620 time(s)
Lithuania


(IMG:https://metalarea.org/images/audiocovers/2015_Dec/acov_tid258010_thumb.jpg)

*Artist: Devoured Flesh
*Album: Gallery Of The Macabre [ep]
*Year: 2015
*Genre: Brutal Death Metal/Goregrind
*Country: United Kingdom (IMG:https://metalarea.org/forum/style_images/flags/United%20Kingdom.png)
*Format: mp3@CBR320kbps
*Size: 23MB

Tracklist:
01. The Evil That Awaits 03:42
02. The Green Inferno 01:43
03. Gallery Of The Macabre 04:25
******************************
Total playing time: 9:50



(IMG:https://metalarea.org/images/youtube.png)

Technical info
(IMG:https://metalarea.org/images/spectrogram/2015_Dec/1690b9b74ad595f73755a33b54bae1d5.png)
Input File: 03. Gallery of the Macarbe.mp3
Channels : 2
Sample Rate : 44100
Precision : 16-bit
Duration : 00:04:25.85 = 11723809 samples = 19938.5 CDDA sectors
File Size : 10.8M
Bit Rate : 324k
Sample Encoding: MPEG audio (layer I, II or III)
Comments :
Title=Gallery of the Macarbe
Artist=Devoured Flesh
Album=Gallery of the Macabre [EP]
Tracknumber=3
Year=2015



Register


Go to the top of the page
  Insert nick Quick quote
+Quote Post
 
Start new topic
Replies (1 - 2)
post Mar 1 2017, 17:29:43
Post #2

Мегаманьяк
***********
Group: Металариец
Posts: 1,518
Releases: 0
From: Санкт-Петербург
On Forums: 7 years 4 months
Thanks: 25 time(s)
Russian Federation


перезалейте плиз!)
Go to the top of the page
  Insert nick Quick quote
+Quote Post
post Sep 13 2017, 10:27:11
Post #3

Маньяк
**********
Group: Металариец
Posts: 1,449
Releases: 0
From: MoscoW
On Forums: 11 years 6 months
Thanks: 1083 time(s)
Russian Federation


Перезалито на Yadi.sk:
Register

(IMG:style_emoticons/default/9.gif) (IMG:style_emoticons/default/9.gif)
Go to the top of the page
  Insert nick Quick quote
+Quote Post

Reply to this topicStart new topic
1 User(s) are reading this topic (1 Guests and 0 Anonymous Users)
0 Members:

 



- Lo-Fi Version Support form
Copyrights and abuse reports form
Time is now: 19th June 2018 - 07:56:43