Welcome Guest ( Log In | Register )

> K.F.R - Lunatic Meditation [ep] (2014), Black Metal/Dark Ambient
Lion
post Dec 9 2015, 12:35:06
Post #1

Guests team






(IMG:https://metalarea.org/images/audiocovers/2015_Dec/acov_tid258116_thumb.jpg)

*Artist: K.F.R
*Album: Lunatic Meditation [ep]
*Year: 2014
*Genre: Black Metal/Dark Ambient
*Country: France (IMG:https://metalarea.org/forum/style_images/flags/France.png)
*Format: mp3@CBR320kbps
*Size: 103MB

Tracklist:
1. Lunatic Meditation
2. Conjuration of My Own Self (part I and II)
3. Morbid Joy
4. Back to Depression
5. Nothing Left
6. Morbid Joy II (Satanik Gospel)
7. Behind the Forest
8. Wanderings
******************************
Total playing time: 44:54

Technical info
(IMG:https://metalarea.org/images/spectrogram/2015_Dec/b192bc393bbdc8f5b4dd29d4ec1c202a.png)
Input File: 04. Back to Depression.mp3
Channels : 2
Sample Rate : 48000
Precision : 16-bit
Duration : 00:04:03.15 = 11671056 samples ~ 18236 CDDA sectors
File Size : 9.80M
Bit Rate : 323k
Sample Encoding: MPEG audio (layer I, II or III)
Comments :
Title=Back to Depression
Artist=K.F.R
Album=Lunatic Meditation (EP)
Tracknumber=4
Year=2014
Genre=Black Metal / Dark Ambient



Register


Go to the top of the page
  Insert nick Quick quote
+Quote Post
 
Start new topic
Replies (1 - 5)
post Dec 10 2015, 02:16:52
Post #2

Правь статус, ####!111
**************
Group: Металариец
Posts: 2,459
Releases: 11
From: Canada
On Forums: 12 years 11 months
Thanks: 1639 time(s)
Canada




Thanks:
(1) artscald,
Go to the top of the page
  Insert nick Quick quote
+Quote Post
post Dec 10 2015, 13:11:10
Post #3

балабол
***********
Group: Металариец
Posts: 1,649
Releases: 1
From: РА-река
On Forums: 9 years 2 months
Thanks: 1395 time(s)
Russian Federation


французов пропускать нельзя..кочаем.
Go to the top of the page
  Insert nick Quick quote
+Quote Post
post Nov 24 2016, 14:21:54
Post #4

Правь статус, ####!111
**************
Group: Металариец
Posts: 46,493
Releases: 718
On Forums: 11 years 5 days
Thanks: 39037 time(s)
Russian Federation


Не самый удачный релиз Макса. Мало собственно блэка, много атональной эмбиентной жужжалки.
Go to the top of the page
  Insert nick Quick quote
+Quote Post
post Oct 7 2019, 09:13:39
Post #5

Правь статус, ####!111
**************
Group: Металариец
Posts: 46,493
Releases: 718
On Forums: 11 years 5 days
Thanks: 39037 time(s)
Russian Federation


Re up please!
Go to the top of the page
  Insert nick Quick quote
+Quote Post
post Oct 8 2019, 12:11:36
Post #6

Group Icon
Group: S-moderation team
Posts: 15,579
Releases: 1440
From: Zagreb
On Forums: 9 years 3 months
Thanks: 69457 time(s)
Croatia


Register


Thanks:
Go to the top of the page
  Insert nick Quick quote
+Quote Post

Reply to this topicStart new topic
1 User(s) are reading this topic (1 Guests and 0 Anonymous Users)
0 Members:

 



- Lo-Fi Version Support form
Copyrights and abuse reports form
Time is now: 6th June 2020 - 17:13:59