Welcome Guest ( Log In | Register )

> Di.Soul.Ved - Confessions From The Soul - Volume 1 (2015), Death Metal/Grindcore
post Dec 10 2015, 15:14:12
Post #1

Три Литра
***
Group: Завсегдатай
Posts: 248
Releases: 225
On Forums: 6 years 4 months
Thanks: 3165 time(s)
Russian Federation


(IMG:http://metalarea.org/images/audiocovers/2015_Dec/acov_tid258187_thumb.jpg)

*Artist: Di.Soul.Ved
*Album: Confessions From The Soul - Volume 1
*Year: 2015
*Genre: Death Metal/Grindcore
*Country: Portugal (IMG:http://metalarea.org/forum/style_images/flags/Portugal.png)
*Format: mp3@CBR320kbps
*Size: 59MB

Tracklist:
1. Where's Your God
2. Indecipherable Me
3. Infinite Present
4. Invisible Empire
5. Dark Balance
6. I
7. Perceptions
8. The Convergence Revolution
9. Evaluate And Liberate
10. Alchemy
11. Dissolved Soul
12. Lost
13. Unrevealed Wisdom
14. The Prophecy - Convulsive Earth
******************************
Total playing time: 26:02



Technical info
(IMG:http://metalarea.org/images/spectrogram/2015_Dec/b33c0d17fc22eabc6852e497a3ae753b.png)
Input File: 02 - Indecipherable Me.mp3
Channels : 2
Sample Rate : 44100
Precision : 16-bit
Duration : 00:01:40.77 = 4443781 samples = 7557.45 CDDA sectors
File Size : 4.07M
Bit Rate : 323k
Sample Encoding: MPEG audio (layer I, II or III)
Comments :
Title=Indecipherable Me
Artist=Di.Soul.Ved
Album=Confessions From The Soul Volume I
Tracknumber=02
Year=2015-11-30



Register


Go to the top of the page
  Insert nick Quick quote
+Quote Post
 
Start new topic
Replies (1 - 1)
post Jul 11 2018, 17:32:04
Post #2

Мегаманьяк
***********
Group: Металариец
Posts: 1,568
Releases: 112
From: Omsk, Siberia
On Forums: 9 years 3 months
Thanks: 2473 time(s)
Russian Federation


newer links (320):
Register
Go to the top of the page
  Insert nick Quick quote
+Quote Post

Reply to this topicStart new topic
2 User(s) are reading this topic (2 Guests and 0 Anonymous Users)
0 Members:

 



- Lo-Fi Version Support form
Copyrights and abuse reports form
Time is now: 17th July 2018 - 20:03:25