Welcome Guest ( Log In | Register )

> Funeral Rites - Weird Tales [demo] (1997), Black Metal
post Dec 12 2015, 06:59:51
Post #1

Маньяк
**********
Group: Металариец
Posts: 1,110
Releases: 437
From: Finland
On Forums: 10 years 6 months
Thanks: 9051 time(s)
Finland


(IMG:http://metalarea.org/images/audiocovers/2015_Dec/acov_tid258284_thumb.jpg)

*Artist: Funeral Rites
*Album: Weird Tales [demo]
*Year: 1997
*Genre: Black Metal
*Country: Japan (IMG:http://metalarea.org/forum/style_images/flags/Japan.png)
*Format: mp3@VBR310kbps
*Size: 42MB

Tracklist:
1. Weird Tales 04:14
2. Moonlight December 07:21
3. At The Warend 02:16
4. Crucifix 04:40
******************************
Total playing time: 18:31

Technical info
(IMG:http://metalarea.org/images/spectrogram/2015_Dec/d740bb57eaa50810bf12b9ac687622ba.png)
Input File: 01 - Weird Tales.mp3
Channels : 2
Sample Rate : 44100
Precision : 16-bit
Duration : 00:04:14.04 = 11203164 samples = 19053 CDDA sectors
File Size : 9.96M
Bit Rate : 314k
Sample Encoding: MPEG audio (layer I, II or III)
Comments :
Title=Weird Tales
Artist=Funeral Rites
Album=Weird Tales
Tracknumber=1
Year=1997
Genre=Black Metal



Register


This post has been edited by Borderline1991: Mar 20 2018, 08:39:07


Go to the top of the page
  Insert nick Quick quote
+Quote Post
 
Start new topic
Replies (1 - 1)
post Feb 3 2019, 12:21:34
Post #2

добрый мизантроп
***********
Group: Металариец
Posts: 1,705
Releases: 0
From: Минск
On Forums: 8 years 8 months
Thanks: 622 time(s)
Madagascar


preview
https://myzcloud.me/album/2747341/funeral-rites-promo-1997
Go to the top of the page
  Insert nick Quick quote
+Quote Post

Reply to this topicStart new topic
1 User(s) are reading this topic (1 Guests and 0 Anonymous Users)
0 Members:

 



- Lo-Fi Version Support form
Copyrights and abuse reports form
Time is now: 21st July 2019 - 07:45:31