Welcome Guest ( Log In | Register )

> Morpheus Descends - From Blackened Crypts [ep] (2015), Death Metal
post Dec 16 2015, 04:37:42
Post #1

Литр
*
Group: Подсевший
Posts: 57
Releases: 43
On Forums: 4 years 4 weeks
Thanks: 775 time(s)
Puerto Rico


(IMG:http://metalarea.org/images/audiocovers/2015_Dec/acov_tid258595_thumb.jpg)

*Artist: Morpheus Descends
*Album: From Blackened Crypts [ep]
*Year: 2015
*Genre: Death Metal
*Country: United States (IMG:http://metalarea.org/forum/style_images/flags/United%20States.png)
*Format: mp3@CBR320kbps
*Size: 26MB

Tracklist:
1. Oozing from the Urn 06:42
2. The King's Curse 05:50
******************************
Total playing time: 12:32



Technical info
(IMG:http://metalarea.org/images/spectrogram/2015_Dec/3c2a0e37e2e4446400ae5136353ae6da.png)
Input File: 02 The King\\\'s Curse.mp3
Channels : 2
Sample Rate : 44100
Precision : 16-bit
Duration : 00:05:50.56 = 15459784 samples = 26292.1 CDDA sectors
File Size : 14.0M
Bit Rate : 320k
Sample Encoding: MPEG audio (layer I, II or III)



Register


Go to the top of the page
  Insert nick Quick quote
+Quote Post
 
Start new topic
Replies (1 - 3)
post Dec 20 2015, 23:30:49
Post #2

De Mysteriis Dom Sathanas
**************
Group: Металариец
Posts: 3,445
Releases: 63
From: Москва
On Forums: 10 years 8 months
Thanks: 2944 time(s)
Russian Federation


Была такая банда на кассетах...стало быть возродились..вроде неплохо так,ритмично играют (IMG:style_emoticons/default/pray.gif)
Go to the top of the page
  Insert nick Quick quote
+Quote Post
post Oct 30 2016, 11:56:23
Post #3

Old School Metal
**************
Group: Металариец
Posts: 2,631
Releases: 0
From: г. Минск
On Forums: 10 years 3 days
Thanks: 5474 time(s)
Belarus


Morpheus Descends – From Blackened Crypts [Digipak Box Set] (2015)

(IMG:http://www.spirit-of-metal.com/les%20goupes/M/Morpheus%20Descends/From%20Blackened%20Crypts/From%20Blackened%20Crypts.jpg)

CD 1:
Tracks 1-2 are the From Blackened Crypts 2015 EP.
Tracks 3-11 are the Ritual of Infinity 1992.
Tracks 12-16 are the Adipocere 2015 EP.
Tracks 17 are the Demo 1993.
CD 2:
Tracks 1-5 are the Chronicles of the Shadowed Ones 1994 EP.
Tracks 6-9 are theThe Horror of the Truth 1997 EP.
Tracks 10-17 are the Bonus Tracks.

--------------------------
Lossless: FLAC (tracks/Log+cue)


Register

====================
Уже 21 век проги надо менять на новые !!!
(IMG:style_emoticons/default/23.gif)
Поменяйте WinRar 5.20 или 5.40 или HaloZip 5.5 для правильной работы архива!!!
Register

Register


Thanks:
Go to the top of the page
  Insert nick Quick quote
+Quote Post
post Jan 11 2019, 15:06:35
Post #4

brutalcesar
**************
Group: Металариец
Posts: 17,647
Releases: 67
From: Рязань
On Forums: 10 years 2 months
Thanks: 9000 time(s)
Russian Federation


Register


Thanks:
(1) Герб,
Go to the top of the page
  Insert nick Quick quote
+Quote Post

Reply to this topicStart new topic
1 User(s) are reading this topic (1 Guests and 0 Anonymous Users)
0 Members:

 



- Lo-Fi Version Support form
Copyrights and abuse reports form
Time is now: 22nd March 2019 - 12:56:15