Welcome Guest ( Log In | Register )

> Pestlegion - March To War [ep] (2014), Black Metal
post Dec 18 2015, 19:03:54
Post #1

Аннигилятор пивА
Group Icon
Group: V.I.P
Posts: 52,360
Releases: 16555
From: Koenigsberg - TILZIT
On Forums: 13 years 6 months
Thanks: 363278 time(s)
Russian Federation


(IMG:https://metalarea.org/images/audiocovers/2015_Dec/acov_tid258812_thumb.jpg)

*Artist: Pestlegion
*Album: March To War [ep]
*Year: 2014
*Genre: Black Metal
*Country: Germany (IMG:https://metalarea.org/forum/style_images/flags/Germany.png)
*Format: mp3@CBR320kbps
*Size: 36MB

Tracklist:
1. Born Of Darkness
2. Nightshade
3. The Arrival
4. March To War
******************************
Total playing time: 14:35



Extended info
Whiskey fueled Black Metal from North Rhine-Westphalia, Germany

T. - Battery (Frank Blackfire, Interstellar Genocide, Sabiendas, ex-Negator)
C. - 6-String Battletunes (Sabiendas, ex-Rectificated, Soulcide (Ger), ex-Castigate, ex-Yethlyreom)
B. - 4-String War Inferno & Voice of the Night (ex-Castigate)
J. - 6-String Atomic Warfare


Technical info
(IMG:https://metalarea.org/images/spectrogram/2015_Dec/041dd65e51a7d348aad4df67ea1a30ef.png)
Input File: 02 - Nightshade.mp3
Channels : 2
Sample Rate : 44100
Precision : 16-bit
Duration : 00:03:25.61 = 9067225 samples = 15420.5 CDDA sectors
File Size : 8.28M
Bit Rate : 322k
Sample Encoding: MPEG audio (layer I, II or III)
Comments :
Title=Nightshade
Artist=Pestlegion
Album=March to War
Tracknumber=02
Year=2014-07-24



Register


Go to the top of the page
  Insert nick Quick quote
+Quote Post
 
Start new topic
Replies (1 - 3)
post Dec 18 2015, 20:35:35
Post #2

Аннигилятор пивА
Group Icon
Group: V.I.P
Posts: 52,360
Releases: 16555
From: Koenigsberg - TILZIT
On Forums: 13 years 6 months
Thanks: 363278 time(s)
Russian Federation


сурьезные дядьки
http://uploads.ru/wUOnB.jpg
Go to the top of the page
  Insert nick Quick quote
+Quote Post
post Feb 9 2017, 07:12:17
Post #3

Аннигилятор пивА
Group Icon
Group: V.I.P
Posts: 52,360
Releases: 16555
From: Koenigsberg - TILZIT
On Forums: 13 years 6 months
Thanks: 363278 time(s)
Russian Federation


ОЖИВЛЮ по причине выхода полноформата
Register

Register



Thanks:
Go to the top of the page
  Insert nick Quick quote
+Quote Post
post Dec 3 2019, 10:16:52
Post #4

Правь статус, ####!111
**************
Group: Металариец
Posts: 2,062
Releases: 0
From: MoscoW
On Forums: 13 years 1 week
Thanks: 1833 time(s)
Russian Federation


Go to the top of the page
  Insert nick Quick quote
+Quote Post

Reply to this topicStart new topic
1 User(s) are reading this topic (1 Guests and 0 Anonymous Users)
0 Members:

 



- Lo-Fi Version Support form
Copyrights and abuse reports form
Time is now: 11th December 2019 - 01:46:01