Welcome Guest ( Log In | Register )

> Serocs - And When The Sky Was Opened (2015), Technical/Brutal Death Metal (D6)
post Dec 21 2015, 15:50:32
Post #1

Serial Uploader
Group Icon
Group: V.I.P
Posts: 37,208
Releases: 35388
From: Lithuania
On Forums: 12 years 1 month
Thanks: 421292 time(s)
Lithuania


(IMG:https://metalarea.org/images/audiocovers/2015_Dec/acov_tid258979_thumb.jpg)

*Artist: Serocs
*Album: And When The Sky Was Opened
*Year: 2015
*Genre: Technical/Brutal Death Metal
*Country: Mexico (IMG:https://metalarea.org/forum/style_images/flags/Mexico.png)
*Format: mp3@VBR274kbps
*Size: 73MB

Tracklist:
01. And So It Begins 03:19
02. Solitude 03:26
03. Itami 04:19
04. When The Ground Swallows Us... 08:07
05. (...) 00:32
06. ...And When The Sky Was Opened 07:22
07. Them 04:15
08. For Nothing 04:29
******************************
Total playing time: 35:49

(IMG:https://metalarea.org/images/myspace.png)


(IMG:https://metalarea.org/images/youtube.png)

Extended info
Scene CD-rip

(IMG:http://metalarea.org/images/spectrogram/2015_Dec/1c158f91e1e8dd5d7425da33eaf5c890.png)
Input File: 02-serocs-solitude.mp3
Channels : 2
Sample Rate : 44100
Precision : 16-bit
Duration : 00:03:26.24 = 9095008 samples = 15467.7 CDDA sectors
File Size : 7.36M
Bit Rate : 286k
Sample Encoding: MPEG audio (layer I, II or III)
Comments :
Title=Solitude
Artist=Serocs
Album=And When The Sky Was Opened
Tracknumber=2/8
Year=2015
Genre=Death Metal
Discnumber=1/1


Register


Go to the top of the page
  Insert nick Quick quote
+Quote Post
 
Start new topic
Replies (1 - 4)
post Jan 4 2016, 22:54:01
Post #2

Правь статус, ####!111
**************
Group: Металариец
Posts: 3,947
Releases: 14
From: Москва и МО
On Forums: 14 years 1 week
Thanks: 1152 time(s)
Russian Federation


В целом, почти что уже можно слушать (прогресс по сравнению с первыми работами, когда это был ван мен прожект на лицо), но все равно пока что все в одно ухо влетело, а из другого вылетело. Не особо круто.
Go to the top of the page
  Insert nick Quick quote
+Quote Post
post Mar 12 2017, 08:05:41
Post #3

Crush! Kill! Destroy!
**************
Group: Металариец
Posts: 5,398
Releases: 15
From: Kaliningrad
On Forums: 12 years 7 months
Thanks: 5052 time(s)
Russian Federation


Самая зрелая работа коллектива, пока развитие наблюдается в каждом альбоме, есть шанс что следующий получится уже совсем удачным
Go to the top of the page
  Insert nick Quick quote
+Quote Post
post Jan 21 2019, 22:39:28
Post #4

добрый мизантроп
***********
Group: Металариец
Posts: 1,738
Releases: 0
From: Минск
On Forums: 9 years 7 months
Thanks: 850 time(s)
Madagascar


Guitars 10/10
Register



Thanks:
Go to the top of the page
  Insert nick Quick quote
+Quote Post
post Jun 30 2020, 10:57:35
Post #5

Правь статус, ####!111
**************
Group: Металариец
Posts: 2,984
Releases: 0
From: MoscoW
On Forums: 13 years 7 months
Thanks: 2297 time(s)
Russian Federation


Есть на DeathGrindClub в 320:
Register


Прямая ссылка на MediaFire - 80.4Mb в 320kbps!!!:
Register

Added by: Stan
(IMG:style_emoticons/default/metaler.gif)
Go to the top of the page
  Insert nick Quick quote
+Quote Post

Reply to this topicStart new topic
1 User(s) are reading this topic (1 Guests and 0 Anonymous Users)
0 Members:

 



- Lo-Fi Version Support form
Copyrights and abuse reports form
Time is now: 9th July 2020 - 00:40:43