Welcome Guest ( Log In | Register )

> Valgaldr - Østenfor Sol (2015), Black Metal
post Dec 23 2015, 21:15:40
Post #1

Правь статус, ####!111
**************
Group: Металариец
Posts: 19,782
Releases: 13414
From: Г.Харьков
On Forums: 7 years 6 months
Thanks: 232039 time(s)
Unknown


(IMG:http://metalarea.org/images/audiocovers/2015_Dec/acov_tid259143_thumb.jpg)

*Artist: Valgaldr
*Album: Østenfor Sol
*Year: 2015
*Genre: Black Metal
*Country: Norway (IMG:http://metalarea.org/forum/style_images/flags/Norway.png)
*Format: mp3@CBR320kbps
*Size: 96MB

Tracklist:
1. Tusen Steiner 04:23
2. Et Slott i Skogen 05:08
3. Taakenatt 04:10
4. Aske Til Aske 05:35
5. Vargnatt 04:27
6. Over Fjellheimen 04:50
7. Slagmark 06:06
8. Begravelsesferd 07:38
******************************
Total playing time: 42:17



Technical info
(IMG:http://metalarea.org/images/spectrogram/2015_Dec/58fc6f6d64f2ddb38a7f51b4fd0436f5.png)
Input File: 02. Et Slott I Skogen.mp3
Channels : 2
Sample Rate : 44100
Precision : 16-bit
Duration : 00:05:08.45 = 13602777 samples = 23134 CDDA sectors
File Size : 12.3M
Bit Rate : 320k
Sample Encoding: MPEG audio (layer I, II or III)
Comments :
Title=Et Slott I Skogen
Artist=Valgaldr
Album=Г?stenfor Sol
Tracknumber=2
Year=2015
Genre=Black Metal



Register


Go to the top of the page
  Insert nick Quick quote
+Quote Post
 
Start new topic
Replies (1 - 5)
Lion
post Dec 25 2015, 11:37:48
Post #2

Guests team






Register


Go to the top of the page
  Insert nick Quick quote
+Quote Post
post Feb 16 2016, 21:53:56
Post #3

ретроград
**************
Group: Металариец
Posts: 4,924
Releases: 181
On Forums: 12 years 5 months
Thanks: 7281 time(s)
Vatican City


Как то жиденько и простенько...
Go to the top of the page
  Insert nick Quick quote
+Quote Post
post Feb 22 2016, 14:20:27
Post #4

I will kill you
**************
Group: Металариец
Posts: 3,027
Releases: 0
From: Moscow
On Forums: 13 years 5 months
Thanks: 6953 time(s)
Russian Federation


mirrors in 320
Register


Go to the top of the page
  Insert nick Quick quote
+Quote Post
post Apr 19 2016, 07:10:00
Post #5

brutalcesar
**************
Group: Металариец
Posts: 17,780
Releases: 67
From: Рязань
On Forums: 10 years 10 months
Thanks: 9384 time(s)
Russian Federation


ЦИТАТА(Kazoth @ Feb 16 2016, 23:53:56) *
Как то жиденько и простенько...

В этом и соль.
Хотя есть и мрачные запилы.
Мне по нраву такое.
Go to the top of the page
  Insert nick Quick quote
+Quote Post
post Jul 20 2016, 18:06:38
Post #6

Маньяк
**********
Group: Металариец
Posts: 1,106
Releases: 37
From: великий город Питер
On Forums: 13 years 11 months
Thanks: 1887 time(s)
Russian Federation


ЦИТАТА(Sethan @ Feb 22 2016, 16:20:27) *
mirrors in 320

на яндексе 128


Thanks:
(1) RENыч,
Go to the top of the page
  Insert nick Quick quote
+Quote Post

Reply to this topicStart new topic
2 User(s) are reading this topic (2 Guests and 0 Anonymous Users)
0 Members:

 



- Lo-Fi Version Support form
Copyrights and abuse reports form
Time is now: 7th December 2019 - 12:37:55