Welcome Guest ( Log In | Register )

> Slow Worm - Dire Dioramas [demo] (2013), Doom Metal/Shoegaze
Lion
post Dec 25 2015, 09:38:46
Post #1

Guests team






(IMG:https://metalarea.org/images/audiocovers/2015_Dec/acov_tid259217_thumb.jpg)

*Artist: Slow Worm
*Album: Dire Dioramas [demo]
*Year: 2013
*Genre: Doom Metal/Shoegaze
*Country: United Kingdom (IMG:https://metalarea.org/forum/style_images/flags/United%20Kingdom.png)
*Format: mp3@CBR320kbps
*Size: 36MB

Tracklist:
1. Macrotrophia
2. The End That Never Begins (King Of The Cosmos)
******************************
Total playing time: 15:31



Technical info
(IMG:https://metalarea.org/images/spectrogram/2015_Dec/0046dc3987b1aecca62feb0e15f11b74.png)
Input File: 01. Macrotrophia.mp3
Channels : 2
Sample Rate : 44100
Precision : 16-bit
Duration : 00:06:59.49 = 18499509 samples = 31461.8 CDDA sectors
File Size : 17.0M
Bit Rate : 324k
Sample Encoding: MPEG audio (layer I, II or III)
Comments :
Title=Macrotrophia
Artist=Slow Worm
Album=Dire Dioramas (Demo)
Tracknumber=1
Year=2013
Genre=Doom Metal



Register


Thanks:
Go to the top of the page
  Insert nick Quick quote
+Quote Post
 
Start new topic
Replies (1 - 1)
post Feb 22 2016, 15:42:34
Post #2

I will kill you
**************
Group: Металариец
Posts: 3,027
Releases: 0
From: Moscow
On Forums: 13 years 6 months
Thanks: 6961 time(s)
Russian Federation


mirror
Register
Go to the top of the page
  Insert nick Quick quote
+Quote Post

Reply to this topicStart new topic
1 User(s) are reading this topic (1 Guests and 0 Anonymous Users)
0 Members:

 



- Lo-Fi Version Support form
Copyrights and abuse reports form
Time is now: 19th January 2020 - 06:24:49