Welcome Guest ( Log In | Register )

> Fury UK - VR (2009), Heavy Metal
Lion
post Dec 25 2015, 09:59:26
Post #1

Guests team






(IMG:https://metalarea.org/images/audiocovers/2015_Dec/acov_tid259219_thumb.jpg)

*Artist: Fury UK
*Album: VR
*Year: 2009
*Genre: Heavy Metal
*Country: United Kingdom (IMG:https://metalarea.org/forum/style_images/flags/United%20Kingdom.png)
*Format: mp3@CBR320kbps
*Size: 109MB

Tracklist:
1. VR
2. Game Over
3. The Hostage
4. Playing Whit Violence
5. Outpost
6. The Human Condition
7. Brotherhood
8. The Last Invention
9. Call To Arms
10. Death By Lightning
******************************
Total playing time: 49:43

Technical info
(IMG:https://metalarea.org/images/spectrogram/2015_Dec/0a377611b66098bd3a83f34d13f6460f.png)
Input File: 02. Game Over.mp3
Channels : 2
Sample Rate : 44100
Precision : 16-bit
Duration : 00:04:39.91 = 12343855 samples = 20993 CDDA sectors
File Size : 11.2M
Bit Rate : 320k
Sample Encoding: MPEG audio (layer I, II or III)
Comments :
Title=Game Over
Artist=Fury UK
Album=VR
Tracknumber=2
Year=2011
Genre=Hard-n-Heavy



Register


Thanks:
Go to the top of the page
  Insert nick Quick quote
+Quote Post
 
Start new topic
Replies (1 - 2)
post Dec 30 2015, 15:28:06
Post #2

Перевозчик
**************
Group: Металариец
Posts: 3,081
Releases: 0
On Forums: 11 years 5 months
Thanks: 677 time(s)
Russian Federation


Go to the top of the page
  Insert nick Quick quote
+Quote Post
post Feb 22 2016, 15:43:11
Post #3

I will kill you
**************
Group: Металариец
Posts: 3,027
Releases: 0
From: Moscow
On Forums: 13 years 5 months
Thanks: 6953 time(s)
Russian Federation


Register


Thanks:
Go to the top of the page
  Insert nick Quick quote
+Quote Post

Reply to this topicStart new topic
2 User(s) are reading this topic (2 Guests and 0 Anonymous Users)
0 Members:

 



- Lo-Fi Version Support form
Copyrights and abuse reports form
Time is now: 8th December 2019 - 19:43:01