Welcome Guest ( Log In | Register )

> Invunche - Invunche [demo] (2014), Raw Black Metal/Punk
post Dec 25 2015, 22:49:54
Post #1

KPN 666
**************
Group: Металариец
Posts: 2,162
Releases: 833
From: Тегеран
On Forums: 10 years 6 months
Thanks: 13700 time(s)
Iran


(IMG:http://metalarea.org/images/audiocovers/2015_Dec/acov_tid259261_thumb.jpg)

*Artist: Invunche
*Album: Invunche [demo]
*Year: 2014
*Genre: Raw Black Metal/Punk
*Country: Netherlands (IMG:http://metalarea.org/forum/style_images/flags/Netherlands.png)
*Format: mp3@CBR320kbps
*Size: 59MB

Tracklist:
01. El Ciclo
02. Estructuras Primarias
03. Paso
04. La Trampa Sagrada I
05. El Invunche
06. No Queda Nada
07. Camino Sin Fin
08. La Trampa Sagrada II
******************************
Total playing time: 19:39

Extended info
Limited to 50 hand-numbered copies.


Technical info
(IMG:http://metalarea.org/images/spectrogram/2015_Dec/8fe91914aae05f1b1535faac6f081a6b.png)
Input File: 07 - Camino Sin Fin.mp3
Channels : 2
Sample Rate : 44100
Precision : 16-bit
Duration : 00:01:31.68 = 4042912 samples = 6875.7 CDDA sectors
File Size : 5.69M
Bit Rate : 497k
Sample Encoding: MPEG audio (layer I, II or III)
Comments :
Title=Camino Sin Fin
Artist=Invunche
Album=Invunche
Tracknumber=07
Year=2014
Genre=Black Metal/Punk



Register


Go to the top of the page
  Insert nick Quick quote
+Quote Post
 
Start new topic
Replies (1 - 3)
post Oct 14 2019, 15:48:51
Post #2

Правь статус, ####!111
**************
Group: Металариец
Posts: 2,163
Releases: 0
From: MoscoW
On Forums: 13 years 1 month
Thanks: 1939 time(s)
Russian Federation


Go to the top of the page
  Insert nick Quick quote
+Quote Post
post Jan 14 2020, 17:13:03
Post #3

holy trident
**********
Group: Металариец
Posts: 1,113
Releases: 0
On Forums: 7 years 2 weeks
Thanks: 731 time(s)
Ukraine


чего всегда не хватало практически всем последышам ildjarn - так это специфической, тяжелой как валун и мрачной как топь психоделии.
разве что bone awl на некоторых демках удавалось изобразить что-то такое с понтом дурманящее, но не особо убедительно.
а тут с этим настолько все в порядке, что прям оторопь берет. рискну заявить, что батька видар мог бы и сам чему-нибудь научиться у этого шамана. под последнюю вещь я просто проваливаюсь куда-то в сумрачный край нечеловечьего забытья и хищных блужданий.
Go to the top of the page
  Insert nick Quick quote
+Quote Post
post Jan 14 2020, 17:23:43
Post #4

Group: Подсевший
Posts: 21
Releases: 0
On Forums: 2 weeks 8 hours
Thanks: 6 time(s)
Kazakhstan


ЦИТАТА(templ @ Jan 14 2020, 22:13:03) *
чего всегда не хватало практически всем последышам ildjarn - так это специфической, тяжелой как валун и мрачной как топь психоделии.
разве что bone awl на некоторых демках удавалось изобразить что-то такое с понтом дурманящее, но не особо убедительно.
а тут с этим настолько все в порядке, что прям оторопь берет. рискну заявить, что батька видар мог бы и сам чему-нибудь научиться у этого шамана. под последнюю вещь я просто проваливаюсь куда-то в сумрачный край нечеловечьего забытья и хищных блужданий.


После такой рецензии прям захотелось ознакомится с данной демкой. Благодарствую за наводку, материал действительно в тотальном воршипе Ildjarn и даже больше (IMG:style_emoticons/default/9.gif)
Go to the top of the page
  Insert nick Quick quote
+Quote Post

Reply to this topicStart new topic
2 User(s) are reading this topic (2 Guests and 0 Anonymous Users)
0 Members:

 



- Lo-Fi Version Support form
Copyrights and abuse reports form
Time is now: 29th January 2020 - 01:03:21