Welcome Guest ( Log In | Register )

> Akhenaten - Incantations Through The Gates Of Irkalla (2015), Mesopotamian Folk/Death/Black Metal
post Jan 6 2016, 00:48:19
Post #1

Serial Uploader
Group Icon
Group: V.I.P
Posts: 35,630
Releases: 33839
From: Lithuania
On Forums: 11 years 1 month
Thanks: 389622 time(s)
Lithuania


(IMG:http://metalarea.org/images/audiocovers/2016_Jan/acov_tid259854_thumb.jpg)

*Artist: Akhenaten
*Album: Incantations Through The Gates Of Irkalla
*Year: 2015
*Genre: Mesopotamian Folk/Death/Black Metal
*Country: United States (IMG:http://metalarea.org/forum/style_images/flags/United%20States.png)
*Format: mp3@CBR320kbps
*Size: 127MB

Tracklist:
1. Incantations Through The Gates Of Irkalla
2. The Watchers
3. Enlil: Lugal Kurk Ur Ra
4. Ninurta: The Fall Of Anzu
5. The Passage Through Flames
6. Brahma Astra
7. Anunnaki
8. Apkallu: Seven Of The Abzu
9. Mis Pi
10. Golden Palace Of The Lamassu
11. Abu Simbel
******************************
Total playing time: 52:35




Technical info
(IMG:http://metalarea.org/images/spectrogram/2016_Jan/31bb9cebd0e92863fd1fa032b991b2bc.png)
Input File: 02. The Watchers.mp3
Channels : 2
Sample Rate : 44100
Precision : 16-bit
Duration : 00:02:29.46 = 6591318 samples = 11209.7 CDDA sectors
File Size : 6.48M
Bit Rate : 347k
Sample Encoding: MPEG audio (layer I, II or III)
Comments :
Title=The Watchers
Artist=Akhenaten
Album=Incantations Through The Gates Of Irkalla
Tracknumber=02/11
Year=2015



Register


Go to the top of the page
  Insert nick Quick quote
+Quote Post
 
Start new topic
Replies (1 - 4)
post May 4 2018, 08:18:53
Post #2

Group: Подсевший
Posts: 14
Releases: 0
On Forums: 10 years 2 months
Thanks: 0 time(s)
Russian Federation


Reupload please! (IMG:style_emoticons/default/pray.gif)
Go to the top of the page
  Insert nick Quick quote
+Quote Post
post Jun 17 2018, 18:58:13
Post #3

Три Литра
***
Group: Завсегдатай
Posts: 262
Releases: 0
On Forums: 5 years 8 months
Thanks: 7 time(s)
Germany


can anybody reup this file?
Go to the top of the page
  Insert nick Quick quote
+Quote Post
post Apr 10 2019, 15:22:18
Post #4

I love Sushi
******
Group: Металариец
Posts: 614
Releases: 0
From: Vienna
On Forums: 9 years 11 months
Thanks: 108 time(s)
Austria


reupload please
Go to the top of the page
  Insert nick Quick quote
+Quote Post
post Apr 14 2019, 16:35:35
Post #5

Мегаманьяк
***********
Group: Металариец
Posts: 1,916
Releases: 0
From: MoscoW
On Forums: 12 years 7 months
Thanks: 1667 time(s)
Russian Federation


Есть на ДаркВорлд'е:
Register

Прямая ссылка на Ядиск - 133Mb в 320kbps + Bonus Track: 12. Anubis (SepticFlesh Cover) (в 128kbps)!!!:
Register

Added by: o.z.
(IMG:style_emoticons/default/metaler.gif)


Thanks:
Go to the top of the page
  Insert nick Quick quote
+Quote Post

Reply to this topicStart new topic
1 User(s) are reading this topic (1 Guests and 0 Anonymous Users)
0 Members:

 



- Lo-Fi Version Support form
Copyrights and abuse reports form
Time is now: 19th July 2019 - 09:38:34