Welcome Guest ( Log In | Register )

> Advanced Logic Degree - Advanced Logic [ep] (2016), Progressive Metal
post Jan 8 2016, 00:54:13
Post #1

Аннигилятор пивА
Group Icon
Group: V.I.P
Posts: 52,360
Releases: 16550
From: Koenigsberg - TILZIT
On Forums: 14 years 1 month
Thanks: 365532 time(s)
Russian Federation


(IMG:https://metalarea.org/images/audiocovers/2016_Jan/acov_tid259993_thumb.jpg)

*Artist: Advanced Logic Degree
*Album: Advanced Logic [ep]
*Year: 2016
*Genre: Progressive Metal
*Country: Greece (IMG:https://metalarea.org/forum/style_images/flags/Greece.png)
*Format: mp3@CBR320kbps
*Size: 66MB

Tracklist:
1. The Fundamental Element 04:56
2. Motion Of Liquid Entities 05:28
3. Matter Breathes Matter 05:37
4. Sea Of Flames 04:37
5. The Element That Binds Them All 06:06
******************************
Total playing time: 26:44



Extended info
INSTRUMENTAL
Advanced Logic Degree is a collective effort formed as a side project from Warcode' s guitarist Miltiadis Argyriou who managed to gather 6 different musicians, each with his own unique style and influences, together to perform on this EP.
Sotiris Staurekas : Drums on Tracks 1 & 3
Christos Aliprantis: Drums on Tracks 2 & 4
Christos Siafakas : Drums on Track 5
Vaggelis Litsios : Bass on Tracks 1 & 3
Christos Bellos : Bass on Tracks 2 & 5
Miltiadis Argyriou : All Guitars, Bass on Track 4
Ilias Pazaras : Lead Guitars on Tracks 2 & 4


Technical info
(IMG:https://metalarea.org/images/spectrogram/2016_Jan/7900a8c39861b7b0ab4943d8ace75b82.png)
Input File: Advanced Logic Degree - Advanced Logic EP - 01 The Fundamental Element.mp3
Channels : 2
Sample Rate : 44100
Precision : 16-bit
Duration : 00:04:56.23 = 13063743 samples = 22217.2 CDDA sectors
File Size : 12.0M
Bit Rate : 324k
Sample Encoding: MPEG audio (layer I, II or III)
Comments :
Title=The Fundamental Element
Artist=Advanced Logic Degree
Album=Advanced Logic EP
Tracknumber=1
Year=2016



Register


Go to the top of the page
  Insert nick Quick quote
+Quote Post
 
Start new topic
Replies (1 - 2)
post Jun 30 2020, 20:00:15
Post #2

Четыре Литра
****
Group: Металариец
Posts: 308
Releases: 0
On Forums: 11 months 1 week
Thanks: 2 time(s)
Argentina


link caido
Go to the top of the page
  Insert nick Quick quote
+Quote Post
post Jun 30 2020, 20:31:25
Post #3

Добрый
**************
Group: Металариец
Posts: 3,961
Releases: 0
On Forums: 2 years 2 days
Thanks: 6682 time(s)
Russian Federation


63 mb/320 kbps
Register


Thanks:
Go to the top of the page
  Insert nick Quick quote
+Quote Post

Reply to this topicStart new topic
1 User(s) are reading this topic (1 Guests and 0 Anonymous Users)
0 Members:

 



- Lo-Fi Version Support form
Copyrights and abuse reports form
Time is now: 3rd July 2020 - 15:43:01