Welcome Guest ( Log In | Register )

> In Malice's Wake - Light Upon The Wicked (2015), Thrash Metal (D4)
post Jan 8 2016, 10:18:01
Post #1

Serial Uploader
Group Icon
Group: V.I.P
Posts: 33,063
Releases: 31348
From: Lithuania
On Forums: 10 years 3 months
Thanks: 358605 time(s)
Lithuania


(IMG:http://metalarea.org/images/audiocovers/2016_Jan/acov_tid260026_thumb.jpg)

*Artist: In Malice's Wake
*Album: Light Upon The Wicked
*Year: 2015
*Genre: Thrash Metal
*Country: Australia (IMG:http://metalarea.org/forum/style_images/flags/Australia.png)
*Format: mp3@CBR320kbps
*Size: 101MB

Tracklist:
01. Onward Human Suffering
02. Bear The Cross
03. In Darkness
04. Light Upon The Wicked
05. From Beyond
06. Hear The Howls
07. Annihilation Frost
08. A Sign Of The Times
09. Indoctrinator
10. The Halls Of The Damned
******************************
Total playing time: 42:05



Technical info
(IMG:http://metalarea.org/images/spectrogram/2016_Jan/05e3e49d156fc309ff7028c683feaa81.png)
Input File: 02. Bear The Cross.mp3
Channels : 2
Sample Rate : 44100
Precision : 16-bit
Duration : 00:03:47.52 = 10033808 samples = 17064.3 CDDA sectors
File Size : 9.33M
Bit Rate : 328k
Sample Encoding: MPEG audio (layer I, II or III)
Comments :
Title=Bear The Cross
Artist=In Malice's Wake
Album=Light Upon The Wicked
Tracknumber=02/10
Year=2015



Register


Go to the top of the page
  Insert nick Quick quote
+Quote Post
 
Start new topic
Replies (1 - 3)
post Jan 8 2016, 14:22:00
Post #2

Два кусочека кавбаски
***
Group: Завсегдатай
Posts: 240
Releases: 29
From: Колыбель металла
On Forums: 10 years 10 months
Thanks: 390 time(s)
Russian Federation


Go to the top of the page
  Insert nick Quick quote
+Quote Post
post Jan 9 2016, 07:19:09
Post #3

MDM-Thrash Metal
**************
Group: Металариец
Posts: 7,061
Releases: 412
From: Одесса
On Forums: 11 years 1 month
Thanks: 13448 time(s)
Ukraine




Thanks:
Go to the top of the page
  Insert nick Quick quote
+Quote Post
post Sep 14 2018, 19:12:15
Post #4

Правь статус, ####!111
**************
Group: Металариец
Posts: 2,070
Releases: 0
On Forums: 3 years 4 months
Thanks: 1909 time(s)
Russian Federation


Из сети, 320
Register


Thanks:
(1) wgs73,
Go to the top of the page
  Insert nick Quick quote
+Quote Post

Reply to this topicStart new topic
1 User(s) are reading this topic (1 Guests and 0 Anonymous Users)
0 Members:

 



- Lo-Fi Version Support form
Copyrights and abuse reports form
Time is now: 22nd September 2018 - 02:25:36