Welcome Guest ( Log In | Register )

> Witte Wieven - Silhouettes Of An Imprisoned Mind [ep] (2016), Atmospheric Black Metal
post Jan 11 2016, 00:53:24
Post #1

Аннигилятор пивА
Group Icon
Group: V.I.P
Posts: 52,358
Releases: 16557
From: Koenigsberg - TILZIT
On Forums: 13 years 3 months
Thanks: 362281 time(s)
Russian Federation


(IMG:https://metalarea.org/images/audiocovers/2016_Jan/acov_tid260199_thumb.jpg)

*Artist: Witte Wieven
*Album: Silhouettes Of An Imprisoned Mind [ep]
*Year: 2016
*Genre: Atmospheric Black Metal
*Country: Netherlands (IMG:https://metalarea.org/forum/style_images/flags/Netherlands.png)
*Format: mp3@CBR320kbps
*Size: 37MB

Tracklist:
1. Ruin 05:04
2. Silhouettes of an Imprisoned Mind 05:05
3. Faces of Unreality 04:57
******************************
Total playing time: 15:06




Extended info
A blend of black metal, dissonance and dreamy landscapes...


Technical info
(IMG:https://metalarea.org/images/spectrogram/2016_Jan/b92b8318a346e1ac7e9fc2308913b489.png)
Input File: Witte Wieven - Silhouettes of an Imprisoned Mind - 01 Ruin.mp3
Channels : 2
Sample Rate : 44100
Precision : 16-bit
Duration : 00:05:04.33 = 13420865 samples = 22824.6 CDDA sectors
File Size : 12.3M
Bit Rate : 324k
Sample Encoding: MPEG audio (layer I, II or III)
Comments :
Title=Ruin
Artist=Witte Wieven
Album=Silhouettes of an Imprisoned Mind
Tracknumber=1
Year=2016



Register


Go to the top of the page
  Insert nick Quick quote
+Quote Post
 
Start new topic
Replies (1 - 1)
post Nov 16 2016, 17:35:15
Post #2

Мегаманьяк
***********
Group: Металариец
Posts: 1,724
Releases: 146
From: Omsk, Siberia
On Forums: 10 years 6 months
Thanks: 3121 time(s)
Russian Federation


new links:
Register


Thanks:
(1) artscald,
Go to the top of the page
  Insert nick Quick quote
+Quote Post

Reply to this topicStart new topic
1 User(s) are reading this topic (1 Guests and 0 Anonymous Users)
0 Members:

 



- Lo-Fi Version Support form
Copyrights and abuse reports form
Time is now: 21st September 2019 - 01:30:42