Welcome Guest ( Log In | Register )

> Brainstorm - Scary Creatures (2016), Heavy/Power Metal (D)
post Jan 14 2016, 20:37:33
Post #1

Group: Подсевший
Posts: 39
Releases: 16
On Forums: 4 years 1 month
Thanks: 481 time(s)
Yemen


(IMG:https://metalarea.org/images/audiocovers/2016_Jan/acov_tid260413_thumb.jpg)

*Artist: Brainstorm
*Album: Scary Creatures
*Year: 2016
*Genre: Heavy/Power Metal
*Country: Germany (IMG:https://metalarea.org/forum/style_images/flags/Germany.png)
*Format: mp3@CBR320kbps
*Size: 115MB

Tracklist:
01. The World to See 05:12
02. How Much Can You Take 04:14
03. We Are... 05:29
04. Where Angels Dream 04:40
05. Scary Creatures 05:29
06. Twisted Ways 05:25
07. Caressed by the Blackness 04:31
08. Scars in Your Eyes 04:27
09. Take Me to the Never 05:07
10. Sky Among the Clouds 05:04
******************************
Total playing time: 49:38

Technical info
(IMG:https://metalarea.org/images/spectrogram/2016_Jan/3c1f08c293c701f752c8f568c8889b52.png)
Input File: 02. How Much Can You Take.mp3
Channels : 2
Sample Rate : 44100
Precision : 16-bit
Duration : 00:04:14.07 = 11204355 samples = 19055 CDDA sectors
File Size : 10.2M
Bit Rate : 322k
Sample Encoding: MPEG audio (layer I, II or III)
Comments :
Title=How Much Can You Take
Artist=Brainstorm
Album=Scary Creatures
Tracknumber=02
Year=2016
Genre=Power Metal
Discnumber=1/1



Register


Go to the top of the page
  Insert nick Quick quote
+Quote Post
 
Start new topic
Replies (1 - 8)
post Jan 14 2016, 20:55:26
Post #2

Маньяк
**********
Group: Металариец
Posts: 1,244
Releases: 0
From: Russian Federation - St.Petersburg
On Forums: 10 years 7 months
Thanks: 292 time(s)
Russian Federation


(IMG:style_emoticons/default/hmm.gif)
http://www.youtube.com/watch?v=b1SNdNG2ZJk
Go to the top of the page
  Insert nick Quick quote
+Quote Post
post Jan 14 2016, 21:13:38
Post #3

Слава всем нам,например!
**************
Group: Металариец
Posts: 2,369
Releases: 33
From: Русская Москва
On Forums: 13 years 3 months
Thanks: 1252 time(s)
Russian Federation


ЦИТАТА(Olrak @ Jan 14 2016, 22:55:26) *


а что не так то ? смайл какой то не понятный . Музло в их стиле,и я считаю что оно офигенное. До этого клип был просто шикарный...

Go to the top of the page
  Insert nick Quick quote
+Quote Post
post Jan 14 2016, 22:46:44
Post #4

Правь статус, ####!111
**************
Group: Металариец
Posts: 6,626
Releases: 0
From: Москва
On Forums: 10 years 2 months
Thanks: 13058 time(s)
Russian Federation


Register
320


Go to the top of the page
  Insert nick Quick quote
+Quote Post
post Jan 15 2016, 06:01:49
Post #5

Ъ
**************
Group: Металариец
Posts: 9,713
Releases: 9
On Forums: 10 years 9 months
Thanks: 1901 time(s)
Sweden


Хорошо изготовленная жвачка.
Go to the top of the page
  Insert nick Quick quote
+Quote Post
post Jan 15 2016, 07:53:11
Post #6

MDM-Thrash Metal
**************
Group: Металариец
Posts: 8,862
Releases: 670
From: Одесса
On Forums: 12 years 2 months
Thanks: 18654 time(s)
Ukraine


ЦИТАТА(DenisKov @ Jan 15 2016, 09:01:49) *
Хорошо изготовленная жвачка.


Полностью согласен. На мой взгляд такая же история как с Аксель Руди Пелл: все хорошо, шаблонно, стандартно...короче копирование самих себя! (IMG:style_emoticons/default/6.gif)


Thanks:
(1) smes,
Go to the top of the page
  Insert nick Quick quote
+Quote Post
post Jan 15 2016, 18:10:21
Post #7

Перевозчик
**************
Group: Металариец
Posts: 3,039
Releases: 0
On Forums: 11 years 3 months
Thanks: 664 time(s)
Russian Federation


Одна из редких групп, которые умудряются при бешенном ритме композиций звучать уныло.
Go to the top of the page
  Insert nick Quick quote
+Quote Post
post Jan 19 2016, 01:11:08
Post #8

Два Литра
**
Group: Завсегдатай
Posts: 141
Releases: 47
From: Argentina
On Forums: 11 years 3 months
Thanks: 527 time(s)
Argentina


mirror
Go to the top of the page
  Insert nick Quick quote
+Quote Post
post Sep 19 2016, 08:01:56
Post #9

Мегаманьяк
***********
Group: Металариец
Posts: 1,780
Releases: 0
On Forums: 6 years 11 months
Thanks: 2582 time(s)
Russian Federation


Рабочая ссылка
Register
Go to the top of the page
  Insert nick Quick quote
+Quote Post

Reply to this topicStart new topic
1 User(s) are reading this topic (1 Guests and 0 Anonymous Users)
0 Members:

 



- Lo-Fi Version Support form
Copyrights and abuse reports form
Time is now: 16th October 2019 - 13:43:08