Welcome Guest ( Log In | Register )

> Fetid Zombie & Deathevoker - Monolith Of Death [split] (2014), Death Metal | Death Metal
post Jan 15 2016, 13:32:04
Post #1

Serial Uploader
Group Icon
Group: V.I.P
Posts: 32,855
Releases: 31151
From: Lithuania
On Forums: 10 years 1 month
Thanks: 356866 time(s)
Lithuania


(IMG:https://metalarea.org/images/audiocovers/2016_Jan/acov_tid260449_thumb.jpg)

*Artist: Fetid Zombie & Deathevoker
*Album: Monolith Of Death [split]
*Year: 2014
*Genre: Death Metal | Death Metal
*Country: United States (IMG:https://metalarea.org/forum/style_images/flags/United%20States.png) | Malaysia (IMG:https://metalarea.org/forum/style_images/flags/Malaysia.png)
*Format: mp3@VBR263kbps
*Size: 62MB

Tracklist:
Fetid Zombie:
01. Burial Shroud 03:12
02. Gazing Into The Eyes Of Death 04:14
03. Trapped Inside 03:29
04. Bow To No Gods 03:11
05. Zombie (Mortuary Drape Cover) 04:23
Deathevoker:
06. Crematorium Of The Headless Corpse 03:50
07. Sinking Into Unconsciousness 02:54
08. The Monolith 02:23
09. The Thirst Of The Guillotine 03:32
10. Sadus Attack (Sadus Cover) 01:32
******************************
Total playing time: 32:40

(IMG:https://metalarea.org/images/myspace.png)



Extended info
Scene CD-rip

(IMG:https://metalarea.org/images/spectrogram/2016_Jan/19d627b55feba1d87857ece3c32daff9.png)
Input File: 03-fetid_zombie-trapped_inside.mp3
Channels : 2
Sample Rate : 44100
Precision : 16-bit
Duration : 00:03:29.68 = 9246888 samples = 15726 CDDA sectors
File Size : 7.05M
Bit Rate : 269k
Sample Encoding: MPEG audio (layer I, II or III)
Comments :
Title=Trapped Inside
Artist=Fetid Zombie
Album=Monolith of Death
Tracknumber=3/10
Year=2014-00-00
Genre=Death Metal


Register


Go to the top of the page
  Insert nick Quick quote
+Quote Post
 
Start new topic
Replies (1 - 2)
post Dec 20 2016, 13:13:54
Post #2

\m/
Group Icon
Group: S-moderation team
Posts: 7,433
Releases: 19
From: Петропавловск-Камчатский
On Forums: 9 years 1 month
Thanks: 6675 time(s)
Russian Federation


На этом сплите Fetid Zombie никакосовый. Странно, а полноформатники не плохи.
Go to the top of the page
  Insert nick Quick quote
+Quote Post
post Jul 13 2018, 23:37:30
Post #3

Маньяк
**********
Group: Металариец
Posts: 1,242
Releases: 0
On Forums: 2 years 3 weeks
Thanks: 49 time(s)
United Kingdom


Please can you re-up
Go to the top of the page
  Insert nick Quick quote
+Quote Post

Reply to this topicStart new topic
1 User(s) are reading this topic (1 Guests and 0 Anonymous Users)
0 Members:

 



- Lo-Fi Version Support form
Copyrights and abuse reports form
Time is now: 17th July 2018 - 19:56:55