Welcome Guest ( Log In | Register )

> Cypecore - Identity (2016), Industrial/Melodic Death Metal
post Jan 21 2016, 13:23:53
Post #1

Serial Uploader
Group Icon
Group: V.I.P
Posts: 34,367
Releases: 32594
From: Lithuania
On Forums: 10 years 9 months
Thanks: 371833 time(s)
Lithuania


(IMG:https://metalarea.org/images/audiocovers/2016_Jan/acov_tid260814_thumb.png)

*Artist: Cypecore
*Album: Identity
*Year: 2016
*Genre: Industrial/Melodic Death Metal
*Country: Germany (IMG:https://metalarea.org/forum/style_images/flags/Germany.png)
*Format: mp3@CBR320kbps
*Size: 107MB

Tracklist:
01. Intro 01:22
02. Saint Of Zion 04:25
03. Where The World Makes Sense 04:04
04. My Confession 04:25
05. Hollow Peace 04:35
06. Identity 04:49
07. Drive 03:37
08. A New Dawn 04:02
09. The Abyss 04:36
10. The Void 05:38
11. Outro 03:45
12. The Hills Have Eyes (Bonus Track) 05:41
******************************
Total playing time: 50:59

(IMG:https://metalarea.org/images/myspace.png)

(IMG:https://metalarea.org/images/youtube.png)

Technical info
(IMG:https://metalarea.org/images/spectrogram/2016_Jan/351dfd319b68bc89b24705d6d8096c42.png)
Input File: 02. Saint of Zion.mp3
Channels : 2
Sample Rate : 44100
Precision : 16-bit
Duration : 00:04:25.67 = 11715915 samples = 19925 CDDA sectors
File Size : 10.6M
Bit Rate : 321k
Sample Encoding: MPEG audio (layer I, II or III)
Comments :
Title=Saint of Zion
Artist=Cypecore
Album=Identity
Tracknumber=2
Year=2016
Genre=Metal
Discnumber=1



Register


Go to the top of the page
  Insert nick Quick quote
+Quote Post
 
Start new topic
Replies (1 - 3)
post Jan 22 2016, 17:54:14
Post #2

Ъ
**************
Group: Металариец
Posts: 9,458
Releases: 9
On Forums: 10 years 2 months
Thanks: 1815 time(s)
Sweden


Очень приятный альбомчик, напомнил как FF так и Мнемик, прогнал на 3 раза, дальше желания нет, все таки не так хитово как хотелось бы.


Thanks:
(1) Metalass,
Go to the top of the page
  Insert nick Quick quote
+Quote Post
post May 24 2016, 14:55:09
Post #3

Штопор Давай
***
Group: Завсегдатай
Posts: 261
Releases: 2
On Forums: 6 years 3 months
Thanks: 80 time(s)
Russian Federation


Хороший альбом...вязкий, утягивающий. Хорошо что нет цепких хитов с рифмами попсовыми,все выдержано строго
Go to the top of the page
  Insert nick Quick quote
+Quote Post
post Mar 15 2019, 16:51:28
Post #4

Маньяк
**********
Group: Металариец
Posts: 1,117
Releases: 0
On Forums: 8 months 2 weeks
Thanks: 589 time(s)
Russian Federation


107 mb/320 kbps
Register
Go to the top of the page
  Insert nick Quick quote
+Quote Post

Reply to this topicStart new topic
2 User(s) are reading this topic (2 Guests and 0 Anonymous Users)
0 Members:

 



- Lo-Fi Version Support form
Copyrights and abuse reports form
Time is now: 23rd March 2019 - 03:57:25