Welcome Guest ( Log In | Register )

> Insoulence - Death Of All Fools (2016), Melodic Death/Black/Thrash Metal
post Jan 26 2016, 17:40:25
Post #1

Три Литра
***
Group: Завсегдатай
Posts: 255
Releases: 225
On Forums: 8 years 3 months
Thanks: 3234 time(s)
Russian Federation


(IMG:http://metalarea.org/images/audiocovers/2016_Jan/acov_tid261107_thumb.jpg)

*Artist: Insoulence
*Album: Death Of All Fools
*Year: 2016
*Genre: Melodic Death/Black/Thrash Metal
*Country: Australia (IMG:http://metalarea.org/forum/style_images/flags/Australia.png)
*Format: mp3@CBR320kbps
*Size: 83MB

Tracklist:
1. Spiritual Deprivation
2. Black Rose
3. World Wide Crypt
4. Destroyer
5. Web Of Deceit
6. Death Of All Fools
7. Insomnia
8. Eurotica
9. Mercy Freak
10. Moth To A Flame
******************************
Total playing time: 39:28



Technical info
(IMG:http://metalarea.org/images/spectrogram/2016_Jan/e5028caf515bcbee9d839697237017ab.png)
Input File: 02 - Black Rose.mp3
Channels : 2
Sample Rate : 44100
Precision : 16-bit
Duration : 00:02:58.85 = 7887461 samples = 13414 CDDA sectors
File Size : 7.30M
Bit Rate : 326k
Sample Encoding: MPEG audio (layer I, II or III)
Comments :
Title=Black Rose
Artist=Insoulence
Album=Death Of All Fools
Tracknumber=02/10
Year=2016



Register


Go to the top of the page
  Insert nick Quick quote
+Quote Post
 
Start new topic
Replies (1 - 2)
post Jan 27 2016, 09:09:51
Post #2

Ъ
**************
Group: Металариец
Posts: 10,044
Releases: 9
On Forums: 11 years 4 months
Thanks: 2015 time(s)
Sweden


Предчувствие с облогой не подвело - третьесорт.
Go to the top of the page
  Insert nick Quick quote
+Quote Post
post May 22 2020, 22:30:25
Post #3

Мегаманьяк
***********
Group: Металариец
Posts: 1,644
Releases: 1
From: ecuador
On Forums: 11 years 10 months
Thanks: 1008 time(s)
Ecuador


Register
Go to the top of the page
  Insert nick Quick quote
+Quote Post

Reply to this topicStart new topic
2 User(s) are reading this topic (2 Guests and 0 Anonymous Users)
0 Members:

 



- Lo-Fi Version Support form
Copyrights and abuse reports form
Time is now: 25th May 2020 - 03:48:23