Welcome Guest ( Log In | Register )

> Cult Of Erinyes - Transcendence [ep] (2016), Black Metal
Jacktheripper666
post Jan 28 2016, 20:46:31
Post #1

Guests team






(IMG:http://metalarea.org/images/audiocovers/2016_Jan/acov_tid261235_thumb.jpg)

*Artist: Cult Of Erinyes
*Album: Transcendence [ep]
*Year: 2016
*Genre: Black Metal
*Country: Belgium (IMG:http://metalarea.org/forum/style_images/flags/Belgium.png)
*Format: mp3@CBR320kbps
*Size: 45MB

Tracklist:
1. Degrees of Solitude 05:45
2. Transcendence 06:40
3. Pagan Fears (Mayhem cover) 06:32
******************************
Total playing time: 18:57



Technical info
(IMG:http://metalarea.org/images/spectrogram/2016_Jan/754758b1f24f6f1a0d87923dd6e75939.png)
Input File: 02. Transcendence.mp3
Channels : 2
Sample Rate : 44100
Precision : 16-bit
Duration : 00:06:40.08 = 17643352 samples = 30005.7 CDDA sectors
File Size : 16.2M
Bit Rate : 324k
Sample Encoding: MPEG audio (layer I, II or III)
Comments :
Title=Transcendence
Artist=Caverna Abismal Records
Album=Transcendence
Tracknumber=2
Year=2016
Genre=Black Metal



Register


Вернуться к началу страницы
  Insert nick Quick quote
+Цитировать сообщение
 
Создать новую тему
Replies (1 - 2)
post Jun 9 2017, 07:13:52
Post #2

Правь статус, ####!111
**************
Group: Металариец
Posts: 2,709
Releases: 18
From: Eternal darkness
On Forums: 10 years 7 months
Thanks: 6295 time(s)
Russian Federation


Register


Вернуться к началу страницы
  Insert nick Quick quote
+Цитировать сообщение
post Jan 13 2018, 09:58:20
Post #3

antithesis
**************
Group: Металариец
Posts: 2,129
Releases: 27
From: VRN
On Forums: 8 years 1 day
Thanks: 1112 time(s)
Russian Federation


mayhem'образная вкуснота
Вернуться к началу страницы
  Insert nick Quick quote
+Цитировать сообщение

ОтветитьСоздать новую тему
2 User(s) are reading this topic (2 Guests and 0 Anonymous Users)
0 Members:

 



- Lo-Fi Version Support form
Copyrights and abuse reports form
Time is now: 24th May 2018 - 14:46:05