Welcome Guest ( Log In | Register )

> И неформату есть предел.

Рэп/хип-хоп/шансон/поп удаляются. Для них есть свои порталы.

> Aluk Todolo - Voix (2016), Occult/Krautrock
Jacktheripper666
post Feb 2 2016, 17:34:45
Post #1

Guests team






(IMG:http://metalarea.org/images/audiocovers/2016_Feb/acov_tid261580_thumb.jpg)

*Artist: Aluk Todolo
*Album: Voix
*Year: 2016
*Genre: Occult/Krautrock
*Country: France (IMG:http://metalarea.org/forum/style_images/flags/France.png)
*Format: mp3@CBR320kbps
*Size: 99MB

Tracklist:
1. 8-18 08:18
2. 7-54 7:54
3. 5-01 05:01
4. 7-01 7:01
5. 5-34 5:34
6. 9-29 9:29
******************************
Total playing time: 43:17



Technical info
(IMG:http://metalarea.org/images/spectrogram/2016_Feb/2648ec03c83165244d986f8a2979bcdb.png)
Input File: 02. 7-54.mp3
Channels : 2
Sample Rate : 48000
Precision : 16-bit
Duration : 00:07:54.14 = 22758912 samples ~ 35560.8 CDDA sectors
File Size : 19.0M
Bit Rate : 321k
Sample Encoding: MPEG audio (layer I, II or III)
Comments :
Title=7:54
Artist=Aluk Todolo
Album=Voix
Tracknumber=2
Year=2015
Genre=Occult / Krautrock



Register


Go to the top of the page
  Insert nick Quick quote
+Quote Post
 
Start new topic
Replies (1 - 8)
post Feb 3 2016, 06:20:56
Post #2

the faceless one
Group Icon
Group: S-moderation team
Posts: 9,264
Releases: 1906
On Forums: 11 years 8 months
Thanks: 113589 time(s)
Russian Federation


(IMG:style_emoticons/default/pray.gif)

Зеркала -

Register


Register


Go to the top of the page
  Insert nick Quick quote
+Quote Post
post Feb 3 2016, 10:17:42
Post #3

ashes of yesterdays
**********
Group: Металариец
Posts: 1,056
Releases: 8
On Forums: 12 years 9 months
Thanks: 2687 time(s)
Unknown


Транскод или не транскод? Так как релиз 5 числа, но на thewire уже дают послушать.

Spektr разродился слоёным пирогом, тут ещё этот оккультный жульен. Вкуснотища, можно закусывать одно другим в бесконечном зацикливании и смотреть в точку.
Go to the top of the page
  Insert nick Quick quote
+Quote Post
post Feb 3 2016, 13:14:37
Post #4

Правь статус, ####!111
**************
Group: Металариец
Posts: 45,807
Releases: 705
On Forums: 10 years 10 months
Thanks: 37883 time(s)
Russian Federation


Вчера ночью обмазался ещё. Крутейший безумный стафф, как и всегда у него.
ЦИТАТА
Spektr разродился слоёным пирогом, тут ещё этот оккультный жульен. Вкуснотища, можно закусывать одно другим в бесконечном зацикливании и смотреть в точку.
Не будем забывать еще Oranssi Pazuzu.
Go to the top of the page
  Insert nick Quick quote
+Quote Post
Kub
post Feb 3 2016, 21:39:55
Post #5

Guests team






уууух, какой вихрь страстей затягивает, когда слушаю сие, отменная порция бодрящего нуара.
действительно, таланта этим безумным парням не занимать, нервы отплясывают степ.
хватаем что нибудь остренькое и в накале страстей чикаем окружающих.


Thanks:
(1) Infidel,
Go to the top of the page
  Insert nick Quick quote
+Quote Post
post Feb 4 2016, 12:01:19
Post #6

Семь Литров
*******
Group: Металариец
Posts: 772
Releases: 0
On Forums: 12 years 5 months
Thanks: 328 time(s)
Belarus


2016-03-26 Moscow - Russia - Brooklyn with Allerseelen + Оцепеневшие

Go to the top of the page
  Insert nick Quick quote
+Quote Post
post Apr 20 2016, 19:59:21
Post #7

Peste noire
**************
Group: Металариец
Posts: 4,845
Releases: 7
From: http://gjoell.org/
On Forums: 13 years 11 months
Thanks: 1431 time(s)
Afghanistan


Из-за того, что в анформате, никто альбома не заметил, чёль
А он-то сочнейший!

Только что пришли дисочки и винил. Есть свободные копии.


Thanks:
(1) Daale,
Go to the top of the page
  Insert nick Quick quote
+Quote Post
post Jun 12 2016, 14:47:11
Post #8

the faceless one
Group Icon
Group: S-moderation team
Posts: 9,264
Releases: 1906
On Forums: 11 years 8 months
Thanks: 113589 time(s)
Russian Federation


(IMG:http://i.imgur.com/I6bueBi.jpg)

CD-RIP 320 CBR Lame 3.93.1 + Scans с фирменного компакт-диска

Register




Lossless раздаю здесь:

http://rutracker.org/forum/viewtopic.php?t=5240753


Go to the top of the page
  Insert nick Quick quote
+Quote Post
post Jan 1 2020, 16:12:55
Post #9

Правь статус, ####!111
**************
Group: Металариец
Posts: 4,726
Releases: 0
From: Одесса
On Forums: 12 years 1 month
Thanks: 3297 time(s)
Ukraine


Very interesting. (IMG:style_emoticons/default/9.gif)


Thanks:
Go to the top of the page
  Insert nick Quick quote
+Quote Post

Reply to this topicStart new topic
2 User(s) are reading this topic (2 Guests and 0 Anonymous Users)
0 Members:

 



- Lo-Fi Version Support form
Copyrights and abuse reports form
Time is now: 10th April 2020 - 20:40:02