Welcome Guest ( Log In | Register )

> Gammacide - Gammacide 91 [demo] (1991), Thrash Metal
post Feb 15 2016, 14:26:50
Post #1

Join my religion, or die
**************
Group: Металариец
Posts: 10,565
Releases: 1468
From: Питера
On Forums: 10 years 6 months
Thanks: 19048 time(s)
Russian Federation


(IMG:https://metalarea.org/images/audiocovers/2016_Feb/acov_tid262279_thumb.jpg)

*Artist: Gammacide
*Album: Gammacide 91 [demo]
*Year: 1991
*Genre: Thrash Metal
*Country: United States (IMG:https://metalarea.org/forum/style_images/flags/United%20States.png)
*Format: mp3@CBR320kbps
*Size: 45MB

Tracklist:
01. Crackdown 04:46
02. Ballistic 04:56
03. Forces of Nature 05:01
04. Sex Cult 05:20
******************************
Total playing time: 20:03

Technical info
(IMG:https://metalarea.org/images/spectrogram/2016_Feb/810b7610c68e69115e7011990074e0e7.png)
Input File: 02 Ballistic.mp3
Channels : 2
Sample Rate : 44100
Precision : 16-bit
Duration : 00:04:56.60 = 13079884 samples = 22244.7 CDDA sectors
File Size : 11.9M
Bit Rate : 320k
Sample Encoding: MPEG audio (layer I, II or III)
Comments :
Title=Ballistic
Artist=Gammacide
Album=1991 Victims of Science
Tracknumber=02/04
Year=1991
Genre=Thrash Metal



Register


Go to the top of the page
  Insert nick Quick quote
+Quote Post
 
Start new topic
Replies (1 - 2)
post Mar 4 2020, 22:27:56
Post #2

Total Death
**********
Group: Металариец
Posts: 1,125
Releases: 75
On Forums: 10 years 10 months
Thanks: 1849 time(s)
Unknown


Лучший их лучший релиз.
Go to the top of the page
  Insert nick Quick quote
+Quote Post
post Mar 5 2020, 03:42:49
Post #3

Шесть Литров
******
Group: Металариец
Posts: 552
Releases: 117
On Forums: 1 year 2 months
Thanks: 1285 time(s)
Canada


Gammacide - (US) Demo 91 @160
23.6 MB
I added a bunch of flyers I found online.
Thanks to the original uploader, probably from the old Lockjaw blogspot (r.i.p.)
Fans of Slayer, Bloodcum, and Anialator will enjoy this thrash.
(Tracks are also added as a bonus on the 2005 CD reissue of the debut album).
20 minutes 7 seconds
1. Crack Down (4:46)
2. Ballistic (4:58)
3. Forces Of Nature (5:05)
4. Sex Cult (5:18)
Register


Thanks:
Go to the top of the page
  Insert nick Quick quote
+Quote Post

Reply to this topicStart new topic
1 User(s) are reading this topic (1 Guests and 0 Anonymous Users)
0 Members:

 



- Lo-Fi Version Support form
Copyrights and abuse reports form
Time is now: 7th April 2020 - 07:37:39