Welcome Guest ( Log In | Register )

> Pogavranjen - Jedva Čekam Da Nikad Ne Umrem (2016), Avant-Garde/Black Metal
post Feb 16 2016, 08:07:38
Post #1

Serial Uploader
Group Icon
Group: V.I.P
Posts: 32,712
Releases: 31010
From: Lithuania
On Forums: 10 years 1 week
Thanks: 355620 time(s)
Lithuania


(IMG:http://metalarea.org/images/audiocovers/2016_Feb/acov_tid262324_thumb.jpg)

*Artist: Pogavranjen
*Album: Jedva Čekam Da Nikad Ne Umrem
*Year: 2016
*Genre: Avant-Garde/Black Metal
*Country: Croatia (IMG:http://metalarea.org/forum/style_images/flags/Croatia.png)
*Format: mp3@CBR320kbps
*Size: 106MB

Tracklist:
1. Keres
2. Maitreya
3. Parahaoma
4. Xolotl
5. Kalpa
6. Olam Ha-Ba
******************************
Total playing time: 40:55




Technical info
(IMG:http://metalarea.org/images/spectrogram/2016_Feb/7a2047bcdfc2e3ba1b981078c5542767.png)
Input File: 02. Maitreya.mp3
Channels : 2
Sample Rate : 44100
Precision : 16-bit
Duration : 00:08:07.65 = 21505365 samples = 36573.8 CDDA sectors
File Size : 19.5M
Bit Rate : 320k
Sample Encoding: MPEG audio (layer I, II or III)
Comments :
Title=Maitreya
Artist=Pogavranjen
Album=Jedva ДЊekam Da Nikad Ne Umrem
Tracknumber=2
Year=2016



Register


Go to the top of the page
  Insert nick Quick quote
+Quote Post
 
Start new topic
Replies (1 - 2)
post Mar 16 2016, 12:55:24
Post #2

Правь статус, ####!111
**************
Group: Металариец
Posts: 3,233
Releases: 9
From: Москва и МО
On Forums: 11 years 11 months
Thanks: 780 time(s)
Russian Federation


Нормальный, даже очень толковый Кроватский Ved Buens Ende. Бренькают зачетно.
Go to the top of the page
  Insert nick Quick quote
+Quote Post
post Sep 13 2017, 07:38:21
Post #3

...
Group Icon
Group: S-moderation team
Posts: 6,230
Releases: 1276
On Forums: 7 years 3 months
Thanks: 31557 time(s)
Unknown


Register


Go to the top of the page
  Insert nick Quick quote
+Quote Post

Reply to this topicStart new topic
1 User(s) are reading this topic (1 Guests and 0 Anonymous Users)
0 Members:

 



- Lo-Fi Version Support form
Copyrights and abuse reports form
Time is now: 19th June 2018 - 07:55:23