Welcome Guest ( Log In | Register )

> Nord Frost - Beatitudo (2016), Atmospheric Black Metal (D9)
post Feb 18 2016, 00:37:26
Post #1

Аннигилятор пивА
Group Icon
Group: V.I.P
Posts: 46,692
Releases: 14016
From: Koenigsberg - TILZIT
On Forums: 11 years 11 months
Thanks: 310881 time(s)
Russian Federation


(IMG:https://metalarea.org/images/audiocovers/2016_Feb/acov_tid262419_thumb.jpg)

*Artist: Nord Frost
*Album: Beatitudo
*Year: 2016
*Genre: Atmospheric Black Metal
*Country: Kazakhstan (IMG:https://metalarea.org/forum/style_images/flags/Kazakhstan.png)
*Format: mp3@CBR320kbps
*Size: 89MB

Tracklist:
1. Memories 05:48
2. Sidera Frigus 07:22
3. Doloris... 07:06
4. Emovere 06:39
5. Procella 04:55
6. Cold Emptiness 04:40
******************************
Total playing time: 36:30



Technical info
(IMG:https://metalarea.org/images/spectrogram/2016_Feb/20678518d016a518d8e101a3fa506b67.png)
Input File: Nord Frost - Nord Frost - -Beatitudo- - 02 Sidera Frigus.mp3
Channels : 2
Sample Rate : 44100
Precision : 16-bit
Duration : 00:07:22.48 = 19513236 samples = 33185.8 CDDA sectors
File Size : 17.8M
Bit Rate : 323k
Sample Encoding: MPEG audio (layer I, II or III)
Comments :
Title=Sidera Frigus
Artist=Nord Frost
Album=Nord Frost - "Beatitudo"
Tracknumber=2
Year=2016



Register


Вернуться к началу страницы
  Insert nick Quick quote
+Цитировать сообщение
 
Создать новую тему
Replies (1 - 4)
post Feb 20 2016, 13:52:38
Post #2

\m/
Group Icon
Group: S-moderation team
Posts: 7,396
Releases: 19
From: Петропавловск-Камчатский
On Forums: 8 years 11 months
Thanks: 6617 time(s)
Russian Federation


Суровые казахстанские парни поют про нордический мороз! (IMG:style_emoticons/default/15.gif)


Thanks:
(1) suseka,
Вернуться к началу страницы
  Insert nick Quick quote
+Цитировать сообщение
post Feb 20 2016, 15:15:30
Post #3

Аннигилятор пивА
Group Icon
Group: V.I.P
Posts: 46,692
Releases: 14016
From: Koenigsberg - TILZIT
On Forums: 11 years 11 months
Thanks: 310881 time(s)
Russian Federation


ЦИТАТА(DarkHorde @ Feb 20 2016, 12:52:38) *
Суровые казахстанские парни поют про нордический мороз! (IMG:style_emoticons/default/15.gif)

про север (IMG:style_emoticons/default/crazy.gif) чуть поправлю, а вообще в свое время много казах(оф) осваивало крайний север и сибирь по путевкам от любимого вождя (IMG:style_emoticons/default/1488.gif)
Вернуться к началу страницы
  Insert nick Quick quote
+Цитировать сообщение
post Feb 20 2016, 18:56:55
Post #4

Победитель судьбы
**************
Group: Металариец
Posts: 4,955
Releases: 0
From: Страны Мамонтов
On Forums: 11 years 3 months
Thanks: 1690 time(s)
Antarctica


ЦИТАТА(aesteticvice @ Feb 20 2016, 18:15:30) *
про север (IMG:style_emoticons/default/crazy.gif) чуть поправлю, а вообще в свое время много казах(оф) осваивало крайний север и сибирь по путевкам от любимого вождя (IMG:style_emoticons/default/1488.gif)

Так якуты и эвенки - это и есть выведенные путем селекции морозоустойчивые казахи


Thanks:
Вернуться к началу страницы
  Insert nick Quick quote
+Цитировать сообщение
post Feb 14 2018, 18:03:09
Post #5

Group: Подсевший
Posts: 24
Releases: 0
On Forums: 1 year 3 weeks
Thanks: 0 time(s)
Russian Federation


где скачать можно?
Вернуться к началу страницы
  Insert nick Quick quote
+Цитировать сообщение

ОтветитьСоздать новую тему
1 User(s) are reading this topic (1 Guests and 0 Anonymous Users)
0 Members:

 



- Lo-Fi Version Support form
Copyrights and abuse reports form
Time is now: 25th May 2018 - 01:56:28