Welcome Guest ( Log In | Register )

> Mefisto - 2.0.1.6: This Is The End Of It All... The Beginning Of Everything (2016), Black/Thrash/Speed Metal (D6)
post Feb 21 2016, 15:46:05
Post #1

Правь статус, ####!111
**************
Group: Металариец
Posts: 14,606
Releases: 10081
From: Г.Харьков
On Forums: 6 years 5 months
Thanks: 166107 time(s)
Unknown


(IMG:http://metalarea.org/images/audiocovers/2016_Feb/acov_tid262626_thumb.jpeg)

*Artist: Mefisto
*Album: 2.0.1.6: This Is The End Of It All... The Beginning Of Everything
*Year: 2016
*Genre: Black/Thrash/Speed Metal
*Country: Sweden (IMG:http://metalarea.org/forum/style_images/flags/Sweden.png)
*Format: mp3@CBR320kbps
*Size: 91MB

Tracklist:
1. Deathrace
2. Void
3. Act Dead
4. Heads in the Sand
5. Frost of Inferno
6. Hate Consumes Me
7. The Puzzle
8. 2.0.1.6
******************************
Total playing time: 43:25

(IMG:http://metalarea.org/images/youtube.png)

Technical info
(IMG:http://metalarea.org/images/spectrogram/2016_Feb/09ac750440f585460efcfbf5bef5a993.png)
Input File: 02. Void.mp3
Channels : 2
Sample Rate : 44100
Precision : 16-bit
Duration : 00:06:22.08 = 16849684 samples = 28655.9 CDDA sectors
File Size : 15.5M
Bit Rate : 325k
Sample Encoding: MPEG audio (layer I, II or III)
Comments :
Title=Void
Artist=Mefisto
Album=2. 0. 1. 6
Tracknumber=2
Year=2016
Genre=Thrash Metal, Death Metal, Black Metal
Discnumber=1



Register


Go to the top of the page
  Insert nick Quick quote
+Quote Post
 
Start new topic
Replies (1 - 8)
post Feb 21 2016, 16:39:16
Post #2
BAN
Banned till
Oct 23 2018, 12:27:08



Модно, молодёжно. В топку!
Go to the top of the page
  Insert nick Quick quote
+Quote Post
post Feb 21 2016, 22:25:04
Post #3

Победитель судьбы
**************
Group: Металариец
Posts: 5,161
Releases: 0
From: Страны Мамонтов
On Forums: 11 years 8 months
Thanks: 1774 time(s)
Antarctica


ЦИТАТА(vosmidesijatye @ Feb 21 2016, 19:39:16) *
Модно, молодёжно. В топку!

Какой-то ты совсем не модный и не молодежный (IMG:style_emoticons/default/1488.gif)


Thanks:
Go to the top of the page
  Insert nick Quick quote
+Quote Post
post Feb 28 2016, 10:40:20
Post #4

Четыре Литра
****
Group: Металариец
Posts: 310
Releases: 38
From: Московская обл.
On Forums: 11 years 2 months
Thanks: 525 time(s)
Russian Federation


Ребята остались верными себе - как в 80х играли жуткое говнище, так и продолжают сейчас!


Thanks:
Go to the top of the page
  Insert nick Quick quote
+Quote Post
post Jun 2 2016, 13:58:55
Post #5

Мегаманьяк
***********
Group: Металариец
Posts: 1,681
Releases: 9
From: Madhouse
On Forums: 11 years 8 months
Thanks: 699 time(s)
Vatican City


Black? Maybe in 1986...
Go to the top of the page
  Insert nick Quick quote
+Quote Post
post Oct 11 2016, 15:30:36
Post #6

Правь статус, ####!111
**************
Group: Металариец
Posts: 3,063
Releases: 1
From: Рейх
On Forums: 12 years 2 months
Thanks: 809 time(s)
Ukraine


Атмосферный и келтик фростовский альбом
Go to the top of the page
  Insert nick Quick quote
+Quote Post
post Oct 24 2017, 10:59:45
Post #7

...
Group Icon
Group: S-moderation team
Posts: 7,190
Releases: 1287
On Forums: 7 years 7 months
Thanks: 35344 time(s)
Croatia


Register


Go to the top of the page
  Insert nick Quick quote
+Quote Post
post Oct 24 2017, 11:59:26
Post #8

Forever Underground
**************
Group: Металариец
Posts: 4,968
Releases: 0
On Forums: 3 years 6 months
Thanks: 4425 time(s)
Unknown


QUOTE(Tino @ Jun 2 2016, 14:58:55) *
Black? Maybe in 1986...

It's not black metal at all, but surely it is a HIGHLY recommended and amazing band!! Everybody should listen to their 2 old demo tapes, true milestones! (IMG:style_emoticons/default/metaler.gif)
Go to the top of the page
  Insert nick Quick quote
+Quote Post
post Aug 10 2018, 04:24:02
Post #9

Правь статус, ####!111
**************
Group: Металариец
Posts: 6,105
Releases: 164
From: URUGUAY
On Forums: 12 years 3 weeks
Thanks: 14889 time(s)
Uruguay


320
Register
Go to the top of the page
  Insert nick Quick quote
+Quote Post

Reply to this topicStart new topic
1 User(s) are reading this topic (1 Guests and 0 Anonymous Users)
0 Members:

 



- Lo-Fi Version Support form
Copyrights and abuse reports form
Time is now: 20th October 2018 - 23:21:23