Welcome Guest ( Log In | Register )

> Demoniac - Touch The Wind (1992), Power/Speed Metal (D)
post Feb 23 2016, 13:00:05
Post #1

Маньяк
**********
Group: Металариец
Posts: 1,255
Releases: 18
From: Lake-City
On Forums: 11 years 1 month
Thanks: 2305 time(s)
Russian Federation


(IMG:https://metalarea.org/images/audiocovers/2016_Feb/acov_tid262746_thumb.jpg)

*Artist: Demoniac
*Album: Touch The Wind
*Year: 1992
*Genre: Power/Speed Metal
*Country: Serbia (IMG:https://metalarea.org/forum/style_images/flags/Serbia.png)
*Format: mp3@CBR320kbps
*Size: 94MB

Tracklist:
1. Intro / Coming Again 06:21
2. No More Lies 04:46
3. And After All 04:30
4. Livin' in Another World 05:39
5. Touch the Wind 04:41
6. Young & Proud 04:06
7. Winds of War 06:168.
8. Total Thrash 03:17
******************************
Total playing time: 39:36

Technical info
(IMG:https://metalarea.org/images/spectrogram/2016_Feb/2025d8403a5bebb3e2a1074e4130f034.png)
Input File: 02 - No More Lies.mp3
Channels : 2
Sample Rate : 48000
Precision : 16-bit
Duration : 00:04:49.85 = 13912848 samples ~ 21738.8 CDDA sectors
File Size : 11.6M
Bit Rate : 320k
Sample Encoding: MPEG audio (layer I, II or III)
Comments :
Title=No More Lies
Artist=Demoniac
Album=Touch the Wind
Tracknumber=2
Year=1992
Genre=Power / Speed Metal



Register


Go to the top of the page
  Insert nick Quick quote
+Quote Post
 
Start new topic
Replies (1 - 5)
post Feb 23 2016, 15:43:51
Post #2

South Of Heaven /адепт ВУДУ
**************
Group: Металариец
Posts: 13,960
Releases: 9
On Forums: 10 years 3 months
Thanks: 5479 time(s)
Unknown


https://www.youtube.com/watch?v=NK4HxNX4mwo
Go to the top of the page
  Insert nick Quick quote
+Quote Post
post Feb 23 2016, 16:12:22
Post #3

Правь статус, ####!111
**************
Group: Металариец
Posts: 3,089
Releases: 0
From: Москва
On Forums: 12 years 5 months
Thanks: 483 time(s)
Russian Federation


Опять их перепутал с новозеландскими блэкарями . (IMG:style_emoticons/default/smile1.gif)


Thanks:
(1) Lucifer,
Go to the top of the page
  Insert nick Quick quote
+Quote Post
post Feb 25 2016, 13:54:48
Post #4

hearer & reader
**************
Group: Металариец
Posts: 8,797
Releases: 144
From: Moscow
On Forums: 12 years 10 months
Thanks: 8964 time(s)
Russian Federation


Кто-то оцифровал ну очень затертую пластиночку...
Go to the top of the page
  Insert nick Quick quote
+Quote Post
post Jun 7 2019, 20:29:28
Post #5

Шесть Литров
******
Group: Металариец
Posts: 653
Releases: 125
On Forums: 1 year 5 months
Thanks: 1547 time(s)
Canada


Demoniac (Srb) - Touch The Wind (1992) [FLAC Vinyl Rip by Modulator]
280 MB
Thanks to the original ripper / uploader.
Register
Go to the top of the page
  Insert nick Quick quote
+Quote Post
post Jun 30 2020, 04:48:01
Post #6

Going home. Flying high.
**************
Group: Металариец
Posts: 13,018
Releases: 0
From: The Land of Shadows
On Forums: 13 years 10 months
Thanks: 24308 time(s)
Russian Federation


from web - vinyl rip
Register
Go to the top of the page
  Insert nick Quick quote
+Quote Post

Reply to this topicStart new topic
2 User(s) are reading this topic (2 Guests and 0 Anonymous Users)
0 Members:

 



- Lo-Fi Version Support form
Copyrights and abuse reports form
Time is now: 9th July 2020 - 09:45:33