Welcome Guest ( Log In | Register )

> Torture Squad - Return Of Evil [ep] (2016), Thrash/Death Metal
post Feb 26 2016, 08:41:33
Post #1

Правь статус, ####!111
**************
Group: Металариец
Posts: 14,280
Releases: 9902
From: Г.Харьков
On Forums: 6 years 4 months
Thanks: 162493 time(s)
Unknown


(IMG:http://metalarea.org/images/audiocovers/2016_Feb/acov_tid262912_thumb.jpg)

*Artist: Torture Squad
*Album: Return Of Evil [ep]
*Year: 2016
*Genre: Thrash/Death Metal
*Country: Brazil (IMG:http://metalarea.org/forum/style_images/flags/Brazil.png)
*Format: mp3@CBR320kbps
*Size: 58MB

Tracklist:
01. Return Of Evil
02. Swallow Your Reality
03. Dreadful Lies
04. Iron Squad
******************************
Total playing time: 25:54

(IMG:http://metalarea.org/images/youtube.png)


Technical info
(IMG:http://metalarea.org/images/spectrogram/2016_Feb/27c143543bb7d0d112d381f62e904faf.png)
Input File: 01. Return of Evil.mp3
Channels : 2
Sample Rate : 44100
Precision : 16-bit
Duration : 00:07:38.84 = 20234668 samples = 34412.7 CDDA sectors
File Size : 18.4M
Bit Rate : 320k
Sample Encoding: MPEG audio (layer I, II or III)
Comments :
Title=Return of Evil
Artist=Torture Squad
Album=Return of Evil
Tracknumber=1
Year=2016
Genre=Thrash Metal



Register


Go to the top of the page
  Insert nick Quick quote
+Quote Post
 
Start new topic
Replies (1 - 2)
post Mar 13 2018, 15:11:30
Post #2

Group: Подсевший
Posts: 18
Releases: 0
On Forums: 1 year 11 months
Thanks: 2 time(s)
Chile


link dead... please upload!! thanks.
Go to the top of the page
  Insert nick Quick quote
+Quote Post
post Mar 13 2018, 21:46:00
Post #3

Правь статус, ####!111
**************
Group: Металариец
Posts: 2,068
Releases: 0
On Forums: 3 years 4 months
Thanks: 1908 time(s)
Russian Federation


320
Register


Thanks:
Go to the top of the page
  Insert nick Quick quote
+Quote Post

Reply to this topicStart new topic
1 User(s) are reading this topic (1 Guests and 0 Anonymous Users)
0 Members:

 



- Lo-Fi Version Support form
Copyrights and abuse reports form
Time is now: 21st September 2018 - 02:54:15