Welcome Guest ( Log In | Register )

> Kozeljnik - Death Gives Unto Life [ep] (2016), Black Metal
post Mar 6 2016, 10:25:47
Post #1

Правь статус, ####!111
**************
Group: Металариец
Posts: 3,816
Releases: 918
From: Brazil
On Forums: 7 years 6 months
Thanks: 34015 time(s)
Brazil


(IMG:https://metalarea.org/images/audiocovers/2016_Mar/acov_tid263403_thumb.jpg)

*Artist: Kozeljnik
*Album: Death Gives Unto Life [ep]
*Year: 2016
*Genre: Black Metal
*Country: Serbia (IMG:https://metalarea.org/forum/style_images/flags/Serbia.png)
*Format: mp3@CBR320kbps
*Size: 66MB

Tracklist:
1. 'Tis the Soul on Wayward Path 07:07
2. Scarring the Entities 05:58
3. Bitter Libations to the Unnamed 07:00
4. Absence and Seclusion of Spirit 08:04
******************************
Total playing time: 28:09




Extended info
Possession Productions


Technical info
(IMG:https://metalarea.org/images/spectrogram/2016_Mar/e0e82db041c50424c33d3eac0bf21271.png)
Input File: 02 Scarring the Entities.mp3
Channels : 2
Sample Rate : 44100
Precision : 16-bit
Duration : 00:05:58.22 = 15797678 samples = 26866.8 CDDA sectors
File Size : 14.6M
Bit Rate : 325k
Sample Encoding: MPEG audio (layer I, II or III)
Comments :
Title=Scarring the Entities
Artist=KOZELJNIK
Album=Death Gives unto Life
Tracknumber=2
Year=2016



Register


Go to the top of the page
  Insert nick Quick quote
+Quote Post
 
Start new topic
Replies (1 - 2)
post Jun 19 2016, 12:25:17
Post #2

Crush! Kill! Destroy!
**************
Group: Металариец
Posts: 4,995
Releases: 15
From: Kaliningrad
On Forums: 11 years 9 months
Thanks: 4574 time(s)
Russian Federation


Если бы мне сказали - что это Ofermod, которые взялись за ум, я бы наверное еще больше обрадовался. Братья сербы выдали чумовой материал!


Thanks:
Go to the top of the page
  Insert nick Quick quote
+Quote Post
post Feb 11 2019, 23:55:38
Post #3

добрый мизантроп
***********
Group: Металариец
Posts: 1,706
Releases: 0
From: Минск
On Forums: 8 years 9 months
Thanks: 644 time(s)
Madagascar


Этот удивительный альбом даже на 15 раз прослушивания дико доставлял атмосферой, риффами и мелодикой. Один из лучших альбомов последнего времени, 10/10 шэдэур
Go to the top of the page
  Insert nick Quick quote
+Quote Post

Reply to this topicStart new topic
2 User(s) are reading this topic (2 Guests and 0 Anonymous Users)
0 Members:

 



- Lo-Fi Version Support form
Copyrights and abuse reports form
Time is now: 19th August 2019 - 18:14:14