Welcome Guest ( Log In | Register )

> Witchcorpse - Screams From The Grave (2014), Thrash Metal
post Mar 14 2016, 13:36:23
Post #1

Serial Uploader
Group Icon
Group: V.I.P
Posts: 36,154
Releases: 34353
From: Lithuania
On Forums: 11 years 3 months
Thanks: 398495 time(s)
Lithuania


(IMG:https://metalarea.org/images/audiocovers/2016_Mar/acov_tid263970_thumb.jpg)

*Artist: Witchcorpse
*Album: Screams From The Grave
*Year: 2014
*Genre: Thrash Metal
*Country: Colombia (IMG:https://metalarea.org/forum/style_images/flags/Colombia.png)
*Format: mp3@VBR255kbps
*Size: 66MB

Tracklist:
01. Intro (Agony, Pain And Hate) 01:07
02. Annihilating Your Fucking Faith 03:40
03. Guerrero Invencible 03:44
04. Screams From The Grave 05:19
05. Into The Death Throne 03:52
06. Lies Rotten 04:26
07. Sleep Paralysis 04:47
08. Vengeance (Screams From The Grave II) 04:41
09. Alcoholic Nights 03:25
******************************
Total playing time: 35:01

(IMG:https://metalarea.org/images/myspace.png)

(IMG:https://metalarea.org/images/youtube.png)

Extended info
Scene CD-rip

(IMG:http://metalarea.org/images/spectrogram/2016_Mar/2cac1e4f00035b1382567666417950e8.png)
Input File: 02-witchcorpse-annihilating_your_fucking_faith.mp3
Channels : 2
Sample Rate : 44100
Precision : 16-bit
Duration : 00:03:40.00 = 9702000 samples = 16500 CDDA sectors
File Size : 7.25M
Bit Rate : 264k
Sample Encoding: MPEG audio (layer I, II or III)
Comments :
Title=Annihilating Your Fucking Faith
Artist=Witchcorpse
Album=Screams From The Grave
Tracknumber=2/9
Year=2015-00-00
Genre=Thrash Metal


Register


Go to the top of the page
  Insert nick Quick quote
+Quote Post
 
Start new topic
Replies (1 - 8)
post Mar 16 2016, 22:27:51
Post #2

Сталин придёт за тобой...
***********
Group: Металариец
Posts: 1,649
Releases: 0
From: Беларусь, Минск
On Forums: 12 years 2 months
Thanks: 784 time(s)
Belarus


Дистракшн у них любимая группа, видать.


Thanks:
Go to the top of the page
  Insert nick Quick quote
+Quote Post
post Mar 30 2016, 16:05:13
Post #3

Black is beautiful
***********
Group: Металариец
Posts: 1,729
Releases: 4
On Forums: 7 years 6 months
Thanks: 338 time(s)
Unknown


Bang your head!
Good Thrash
(IMG:style_emoticons/default/metaler.gif) (IMG:style_emoticons/default/metaler.gif) (IMG:style_emoticons/default/metaler.gif)
Go to the top of the page
  Insert nick Quick quote
+Quote Post
post Jul 13 2016, 13:57:48
Post #4

_ - = # Thrashogolic # = - _ ... а давайте поржём все вместе
**************
Group: Металариец
Posts: 21,095
Releases: 4444
From: 404
On Forums: 9 years 3 months
Thanks: 27570 time(s)
Ukraine


early them Witchcorpse - Total Holocaust [ep] (2011)
Go to the top of the page
  Insert nick Quick quote
+Quote Post
post Jul 17 2016, 18:56:49
Post #5

_ - = # Thrashogolic # = - _ ... а давайте поржём все вместе
**************
Group: Металариец
Posts: 21,095
Releases: 4444
From: 404
On Forums: 9 years 3 months
Thanks: 27570 time(s)
Ukraine


Занууудно. (IMG:style_emoticons/default/21.gif)
Go to the top of the page
  Insert nick Quick quote
+Quote Post
post Dec 23 2017, 08:39:56
Post #6

Литр
*
Group: Подсевший
Posts: 72
Releases: 0
From: Finland
On Forums: 10 years 3 months
Thanks: 10 time(s)
Russian Federation


Re-upload anyone?
Thanks in advance! \m/
Go to the top of the page
  Insert nick Quick quote
+Quote Post
post Feb 5 2018, 22:52:52
Post #7

Правь статус, ####!111
**************
Group: Металариец
Posts: 2,212
Releases: 0
On Forums: 4 years 4 months
Thanks: 2420 time(s)
Russian Federation


Из сети, 320 CD-rip
Register


Thanks:
(1) Tino,
Go to the top of the page
  Insert nick Quick quote
+Quote Post
post Aug 31 2019, 21:33:23
Post #8

Два Литра
**
Group: Завсегдатай
Posts: 112
Releases: 0
From: bogota
On Forums: 1 year 8 months
Thanks: 2 time(s)
Unknown


upload link
Go to the top of the page
  Insert nick Quick quote
+Quote Post
post Sep 1 2019, 10:43:09
Post #9


Group Icon
Group: S-moderation team
Posts: 11,576
Releases: 1438
From: Zagreb
On Forums: 8 years 6 months
Thanks: 49777 time(s)
Croatia


Register


Thanks:
(2) Nair, Wail,
Go to the top of the page
  Insert nick Quick quote
+Quote Post

Reply to this topicStart new topic
2 User(s) are reading this topic (2 Guests and 0 Anonymous Users)
0 Members:

 



- Lo-Fi Version Support form
Copyrights and abuse reports form
Time is now: 21st September 2019 - 22:48:10