Welcome Guest ( Log In | Register )

> Ramchat - Atrana (2016), Black/Pagan Metal
post Mar 18 2016, 06:19:31
Post #1

Правь статус, ####!111
**************
Group: Металариец
Posts: 19,818
Releases: 13447
From: Г.Харьков
On Forums: 7 years 7 months
Thanks: 232576 time(s)
Unknown


(IMG:http://metalarea.org/images/audiocovers/2016_Mar/acov_tid264280_thumb.png)

*Artist: Ramchat
*Album: Atrana
*Year: 2016
*Genre: Black/Pagan Metal
*Country: Slovakia (IMG:http://metalarea.org/forum/style_images/flags/Slovakia.png)
*Format: mp3@CBR320kbps
*Size: 107MB

Tracklist:
1. Tŕne hrobov
2. Dobyvateľ, nerozdeľuj
3. Perún hromom žehná nás
4. Tam, kde horeli stromy
5. Bojovník v Svarogovej temnej noci
6. Zlatoroh
7. Po temne žiara
8. Zvlčili sme
9. Sila ducha
******************************
Total playing time: 44:53



Technical info
(IMG:http://metalarea.org/images/spectrogram/2016_Mar/7ff3ff0934691d1a6baae3e0af8cac4f.png)
Input File: 02. Dobyvatel, nerozdeluj!.mp3
Channels : 2
Sample Rate : 44100
Precision : 16-bit
Duration : 00:05:04.36 = 13422188 samples = 22826.9 CDDA sectors
File Size : 12.8M
Bit Rate : 336k
Sample Encoding: MPEG audio (layer I, II or III)
Comments :
Title=Dobyvatel, nerozdeluj!
Artist=Ramchat
Album=Atrana
Tracknumber=02
Year=2016
Genre=Black Metal



Register


Go to the top of the page
  Insert nick Quick quote
+Quote Post
 
Start new topic
Replies (1 - 3)
post Mar 20 2016, 05:36:14
Post #2

Правь статус, ####!111
**************
Group: Металариец
Posts: 2,455
Releases: 11
From: Canada
On Forums: 12 years 5 months
Thanks: 1619 time(s)
Canada


http://bandzone.cz/ramchat
Go to the top of the page
  Insert nick Quick quote
+Quote Post
post Dec 3 2019, 16:18:26
Post #3

Три Литра
***
Group: Завсегдатай
Posts: 270
Releases: 0
From: Moscow
On Forums: 11 years 10 months
Thanks: 18 time(s)
Russian Federation


Reupload pls
Go to the top of the page
  Insert nick Quick quote
+Quote Post
post Dec 3 2019, 18:48:05
Post #4

Два Литра
**
Group: Завсегдатай
Posts: 132
Releases: 0
On Forums: 11 years 5 months
Thanks: 192 time(s)
Russian Federation


cbr 320

Register


Thanks:
(1) Amadeus,
Go to the top of the page
  Insert nick Quick quote
+Quote Post

Reply to this topicStart new topic
2 User(s) are reading this topic (2 Guests and 0 Anonymous Users)
0 Members:

 



- Lo-Fi Version Support form
Copyrights and abuse reports form
Time is now: 11th December 2019 - 03:38:52