Welcome Guest ( Log In | Register )

> 

Здесь релизы с живыми прямыми ссылками на lossless

> Dokken - Breaking The Chains (1983), Heavy Metal/Hard Rock
post Mar 23 2016, 03:40:42
Post #1

Маньяк
**********
Group: Металариец
Posts: 1,255
Releases: 18
From: Lake-City
On Forums: 10 years 11 months
Thanks: 2304 time(s)
Russian Federation


(IMG:https://metalarea.org/images/audiocovers/2016_Mar/acov_tid264539_thumb.jpg)

*Artist: Dokken
*Album: Breaking The Chains
*Year: 1983
*Genre: Heavy Metal/Hard Rock
*Country: United States (IMG:https://metalarea.org/forum/style_images/flags/United%20States.png)
*Format: mp3@CBR320kbps
*Size: 87MB

Tracklist:
1. Breaking the Chains 03:50
2. In the Middle 03:44
3. Felony 03:07
4. I Can't See You 03:12
5. Live to Rock (Rock to Live) 03:38
6. Nightrider 03:13
7. Seven Thunders 03:56
8. Young Girls 03:14
9. Stick to Your Guns 03:24
10. Paris Is Burning (Live) 05:08
******************************
Total playing time: 36:26

Technical info
(IMG:https://metalarea.org/images/spectrogram/2016_Mar/c0590be08db23b80f56054e7b31d5947.png)
Input File: 02 In The Middle.mp3
Channels : 2
Sample Rate : 44100
Precision : 16-bit
Duration : 00:03:43.76 = 9867904 samples = 16782.1 CDDA sectors
File Size : 8.95M
Bit Rate : 320k
Sample Encoding: MPEG audio (layer I, II or III)
Comments :
Title=In The Middle
Artist=Dokken
Album=Breaking The Chains
Tracknumber=02
Year=1983
Genre=Heavy Metal / Hard Rock



Register


Go to the top of the page
  Insert nick Quick quote
+Quote Post
 
Start new topic
Replies (1 - 4)
post Sep 5 2018, 17:24:26
Post #2

Враг Газпрома
**************
Group: Металариец
Posts: 6,211
Releases: 0
On Forums: 10 years 11 months
Thanks: 2406 time(s)
Russian Federation


Смесь хард-рока американского (Breaking the Chains, Young Girls) и европейского (Live to Rock, Paris Is Burning), порой напоминающего мне Scorpions примерно того времени то вокалом (I Can't See You, Nightrider), то гитарным звуком (Stick to Your Guns). Иногда - неплохие мелодии, иногда - хороший драйв. Но чего точно не хватало этому альбому - хорошей баллады, среднетемповая Felony тут не пляшет совершенно. Больше всего нравятся Live to Rock и Paris Is Burning (в ней уж Линч разгулялся на гитаре на славу!).
Go to the top of the page
  Insert nick Quick quote
+Quote Post
post Sep 5 2018, 17:35:22
Post #3

железный нечеловек
**********
Group: Металариец
Posts: 1,267
Releases: 3
From: Уфа
On Forums: 11 years 1 month
Thanks: 445 time(s)
Russian Federation


В 83-м время Доккена ещё не пришло
Go to the top of the page
  Insert nick Quick quote
+Quote Post
post Apr 14 2020, 22:59:28
Post #4

Group: Подсевший
Posts: 12
Releases: 0
On Forums: 1 year 2 months
Thanks: 0 time(s)
Unknown


BROKEN
Go to the top of the page
  Insert nick Quick quote
+Quote Post
post Apr 16 2020, 04:46:54
Post #5

Group Icon
Group: S-moderation team
Posts: 15,559
Releases: 1440
From: Zagreb
On Forums: 9 years 3 months
Thanks: 69173 time(s)
Croatia


Register


Thanks:
Go to the top of the page
  Insert nick Quick quote
+Quote Post

Reply to this topicStart new topic
2 User(s) are reading this topic (2 Guests and 0 Anonymous Users)
0 Members:

 



- Lo-Fi Version Support form
Copyrights and abuse reports form
Time is now: 30th May 2020 - 22:01:42