Welcome Guest ( Log In | Register )

> Stone Sovereign - Stone Sovereign [ep] (2016), Melodic Death/Folk Metal
post Mar 25 2016, 15:24:14
Post #1

Serial Uploader
Group Icon
Group: V.I.P
Posts: 35,603
Releases: 33812
From: Lithuania
On Forums: 11 years 1 month
Thanks: 389233 time(s)
Lithuania


(IMG:https://metalarea.org/images/audiocovers/2016_Mar/acov_tid264661_thumb.jpg)

*Artist: Stone Sovereign
*Album: Stone Sovereign [ep]
*Year: 2016
*Genre: Melodic Death/Folk Metal
*Country: Australia (IMG:https://metalarea.org/forum/style_images/flags/Australia.png)
*Format: mp3@CBR320kbps
*Size: 17MB

Tracklist:
01. Scarred & Burned 04:01
02. King Of Sand 03:39
******************************
Total playing time: 7:40



Technical info
(IMG:https://metalarea.org/images/spectrogram/2016_Mar/373b2a0b19f55b73e2049f40aba15387.png)
Input File: 02. King of Sand.mp3
Channels : 2
Sample Rate : 44100
Precision : 16-bit
Duration : 00:03:39.08 = 9661560 samples = 16431.2 CDDA sectors
File Size : 8.80M
Bit Rate : 321k
Sample Encoding: MPEG audio (layer I, II or III)
Comments :
Title=King of Sand
Artist=Stone Sovereign
Album=Stone Sovereign
Tracknumber=2
Year=2016



Register


Go to the top of the page
  Insert nick Quick quote
+Quote Post
 
Start new topic
Replies (1 - 3)
Papa666
post Mar 26 2016, 07:54:39
Post #2

Guests team






Register


Thanks:
Go to the top of the page
  Insert nick Quick quote
+Quote Post
post Jun 12 2019, 18:08:11
Post #3

Шесть Литров
******
Group: Металариец
Posts: 500
Releases: 0
On Forums: 7 years 2 months
Thanks: 37 time(s)
Belarus


Перезалейте,пожалуйста
Go to the top of the page
  Insert nick Quick quote
+Quote Post
post Jun 12 2019, 19:28:07
Post #4


Group Icon
Group: S-moderation team
Posts: 11,118
Releases: 1438
From: Zagreb
On Forums: 8 years 4 months
Thanks: 47629 time(s)
Croatia


Register
Go to the top of the page
  Insert nick Quick quote
+Quote Post

Reply to this topicStart new topic
1 User(s) are reading this topic (1 Guests and 0 Anonymous Users)
0 Members:

 



- Lo-Fi Version Support form
Copyrights and abuse reports form
Time is now: 16th July 2019 - 03:35:05