Welcome Guest ( Log In | Register )

 
Reply to this topicStart new topic
> Provocator & Sahrana - Holy Incest [split] (2015), Raw Black Metal | Black Metal (D8)
post Mar 25 2016, 20:53:55
Post #1

𝕻𝕬𝕹𝕬𝕮𝕰𝕬
*********
Group: Металариец
Posts: 986
Releases: 585
On Forums: 9 years 6 months
Thanks: 10952 time(s)
Unknown


(IMG:http://metalarea.org/images/audiocovers/2016_Mar/acov_tid264677_thumb.jpg)

*Artist: Provocator & Sahrana
*Album: Holy Incest [split]
*Year: 2015
*Genre: Raw Black Metal | Black Metal
*Country: Slovenia (IMG:http://metalarea.org/forum/style_images/flags/Slovenia.png) | Bosnia and Herzegovina (IMG:http://metalarea.org/forum/style_images/flags/Bosnia%20and%20Herzegovina.png)
*Format: mp3@CBR320kbps
*Size: 73MB

Tracklist:
Provocator:
1. Lords of Terror 03:55
2. Mother of the Black Moon 05:13
3. Rebirth in Blood and Blasphemy 04:08
4. Holy Incest 06:58
5. Angel ov Death and God of Doom 05:12
Sahrana:
6. Satanic Wild Hogs (Eaters of Christ's Flesh) 04:37
7. Mosque Burner (Anti-islamic & intolerant) 01:16
8. Raped Apostles of Holy Father Kačavenda 04:46
9. Blessed be You, the Holy Pig 00:26
******************************
Total playing time: 36:31

Extended info
Limited to 1000 copies split CD.


Technical info
(IMG:http://metalarea.org/images/spectrogram/2016_Mar/550845cdb76676c9e391fc7856db2828.png)
Input File: 07 - Mosque Burner (Anti-islamic & intolerant).mp3
Channels : 2
Sample Rate : 44100
Precision : 16-bit
Duration : 00:01:16.91 = 3391599 samples = 5768.03 CDDA sectors
File Size : 3.08M
Bit Rate : 320k
Sample Encoding: MPEG audio (layer I, II or III)
Comments :
Title=Mosque Burner (Anti-islamic & intolerant)
Artist=Sahrana
Album=Holy Incest
Tracknumber=7
Year=2015
Genre=Black Metal



Register


Go to the top of the page
  Insert nick Quick quote
+Quote Post

Reply to this topicStart new topic
1 User(s) are reading this topic (1 Guests and 0 Anonymous Users)
0 Members:

 



- Lo-Fi Version Support form
Copyrights and abuse reports form
Time is now: 4th December 2021 - 23:26:35