Welcome Guest ( Log In | Register )

> Livet Som Insats - Livet Som Insats (2013), Grindcore
post Mar 26 2016, 14:22:02
Post #1

Serial Uploader
Group Icon
Group: V.I.P
Posts: 33,153
Releases: 31437
From: Lithuania
On Forums: 10 years 4 months
Thanks: 359384 time(s)
Lithuania


(IMG:https://metalarea.org/images/audiocovers/2016_Mar/acov_tid264715_thumb.jpg)

*Artist: Livet Som Insats
*Album: Livet Som Insats
*Year: 2013
*Genre: Grindcore
*Country: Sweden (IMG:https://metalarea.org/forum/style_images/flags/Sweden.png)
*Format: mp3@CBR320kbps
*Size: 71MB

Tracklist:
01. Det Här Är Livet 01:33
02. "Dispolis" 02:31
03. Köksbordsåsikter 02:07
04. Huvudet I Sanden-Principen 01:26
05. Tystnad 02:29
06. Falun Glam City 01:07
07. Efter Regnet Kommer...Rens 00:18
08. I'm Thru 01:06
09. Svarta Hål 00:54
10. No Posers 00:45
11. Den Känslan 01:42
12. Bära Eller Brista 01:25
13. Svenska Avundsjukan 01:21
14. Ett Slag För Mycket 01:10
15. Dit Vinden Blåser 01:27
16. Dö! 00:51
17. Face Your Fears 00:52
18. Skitsnack 01:31
19. Don't Let Them Get To You 01:39
20. Övervakad 00:40
21. N.N.T.R 02:01
22. The Narrow Path (G-Anx Cover) 01:02
******************************
Total playing time: 29:57



(IMG:https://metalarea.org/images/youtube.png)

Technical info
(IMG:https://metalarea.org/images/spectrogram/2016_Mar/0590fa408acea110d4af5dbde9a30977.png)
Input File: 03. K?ksbords?sikter.mp3
Channels : 2
Sample Rate : 44100
Precision : 16-bit
Duration : 00:02:07.80 = 5636068 samples = 9585.15 CDDA sectors
File Size : 5.24M
Bit Rate : 328k
Sample Encoding: MPEG audio (layer I, II or III)
Comments :
Title=Köksbordsåsikter
Artist=Livet Som Insats
Album=S/T
Tracknumber=3
Year=2013



Register


Go to the top of the page
  Insert nick Quick quote
+Quote Post
 
Start new topic
Replies (1 - 1)
post Oct 11 2018, 12:49:20
Post #2

Мегаманьяк
***********
Group: Металариец
Posts: 1,610
Releases: 120
From: Omsk, Siberia
On Forums: 9 years 7 months
Thanks: 2598 time(s)
Russian Federation


newer links (320):
Register


Thanks:
Go to the top of the page
  Insert nick Quick quote
+Quote Post

Reply to this topicStart new topic
1 User(s) are reading this topic (1 Guests and 0 Anonymous Users)
0 Members:

 



- Lo-Fi Version Support form
Copyrights and abuse reports form
Time is now: 23rd October 2018 - 16:55:19