Welcome Guest ( Log In | Register )

> Dokken - Dysfunctional (1995), Heavy Metal/Hard Rock (D)
post Mar 26 2016, 16:01:58
Post #1

Маньяк
**********
Group: Металариец
Posts: 1,255
Releases: 18
From: Lake-City
On Forums: 11 years 10 hours
Thanks: 2304 time(s)
Russian Federation


(IMG:https://metalarea.org/images/audiocovers/2016_Mar/acov_tid264722_thumb.jpg)

*Artist: Dokken
*Album: Dysfunctional
*Year: 1995
*Genre: Heavy Metal/Hard Rock
*Country: United States (IMG:https://metalarea.org/forum/style_images/flags/United%20States.png)
*Format: mp3@CBR320kbps
*Size: 129MB

Tracklist:
1. Inside Looking Out 04:08
2. Hole in My Head 04:33
3. The Maze 04:50
4. Too High to Fly 07:10
5. Nothing Left to Say 04:30
6. Shadows of Life 04:32
7. Long Way Home 05:12
8. Sweet Chains 05:46
9. Lesser of Two Evils 04:03
10. What Price 05:45
11. From the Beginning 04:12
******************************
Total playing time: 54:41

Technical info
(IMG:https://metalarea.org/images/spectrogram/2016_Mar/5dc676b860e49b5bd92afc1112981395.png)
Input File: 02 Hole In My Head.mp3
Channels : 2
Sample Rate : 44100
Precision : 16-bit
Duration : 00:04:35.41 = 12145625 samples = 20655.8 CDDA sectors
File Size : 11.0M
Bit Rate : 320k
Sample Encoding: MPEG audio (layer I, II or III)
Comments :
Title=Hole In My Head
Artist=Dokken
Album=Dysfunctional
Tracknumber=02
Year=1995
Genre=Heavy Metal / Hard Rock



Register


Go to the top of the page
  Insert nick Quick quote
+Quote Post
 
Start new topic
Replies (1 - 1)
post Mar 27 2016, 11:11:13
Post #2

melofags sniper
**************
Group: Металариец
Posts: 5,016
Releases: 0
From: Одеса
On Forums: 12 years 3 months
Thanks: 3762 time(s)
Ukraine


informat r
Go to the top of the page
  Insert nick Quick quote
+Quote Post

Reply to this topicStart new topic
2 User(s) are reading this topic (2 Guests and 0 Anonymous Users)
0 Members:

 



- Lo-Fi Version Support form
Copyrights and abuse reports form
Time is now: 4th June 2020 - 17:36:44