Welcome Guest ( Log In | Register )

> Dokken - Shadowlife (1997), Heavy Metal/Hard Rock (D)
post Mar 26 2016, 16:10:35
Post #1

Маньяк
**********
Group: Металариец
Posts: 1,255
Releases: 18
From: Lake-City
On Forums: 10 years 11 months
Thanks: 2304 time(s)
Russian Federation


(IMG:https://metalarea.org/images/audiocovers/2016_Mar/acov_tid264723_thumb.jpg)

*Artist: Dokken
*Album: Shadowlife
*Year: 1997
*Genre: Heavy Metal/Hard Rock
*Country: United States (IMG:https://metalarea.org/forum/style_images/flags/United%20States.png)
*Format: mp3@CBR320kbps
*Size: 151MB

Tracklist:
1. Puppet on a String 04:21
2. Cracks in the Ground 05:01
3. Sky Beneath My Feet 04:35
4. Until I Know 02:17
5. Hello 03:01
6. Convenience Store Messiah 04:28
7. I Feel 04:23
8. Here I Stand 04:43
9. Hard to Believe 04:49
10. Sweet Life 04:23
11. Bitter Regret 03:59
12. I Don't Mind 03:18
13. Until I Know (Slight Return) 02:42
14. How Many Lives 04:48
15. Deep Waters 06:06
******************************
Total playing time: 1:02:54

Technical info
(IMG:https://metalarea.org/images/spectrogram/2016_Mar/3993faa37cc56c4e1b4967454fffcb47.png)
Input File: 02 Cracks In The Ground.mp3
Channels : 2
Sample Rate : 44100
Precision : 16-bit
Duration : 00:05:01.69 = 13304661 samples = 22627 CDDA sectors
File Size : 12.1M
Bit Rate : 320k
Sample Encoding: MPEG audio (layer I, II or III)
Comments :
Title=Cracks In The Ground
Artist=Dokken
Album=Shadowlife
Tracknumber=02
Year=1997
Genre=Heavy Metal / Hard Rock



Register


Go to the top of the page
  Insert nick Quick quote
+Quote Post
 
Start new topic
Replies (1 - 1)
post Mar 27 2016, 11:10:49
Post #2
BAN
Banned till
Jun 1 2020, 09:51:43



informat r
Go to the top of the page
  Insert nick Quick quote
+Quote Post

Reply to this topicStart new topic
2 User(s) are reading this topic (2 Guests and 0 Anonymous Users)
0 Members:

 



- Lo-Fi Version Support form
Copyrights and abuse reports form
Time is now: 30th May 2020 - 22:42:28