Welcome Guest ( Log In | Register )

> Strange Here - Strange Here II (2015), Doom Metal
post Mar 27 2016, 01:39:02
Post #1

Serial Uploader
Group Icon
Group: V.I.P
Posts: 37,292
Releases: 35468
From: Lithuania
On Forums: 12 years 2 months
Thanks: 422730 time(s)
Lithuania


(IMG:http://metalarea.org/images/audiocovers/2016_Mar/acov_tid264746_thumb.jpg)

*Artist: Strange Here
*Album: Strange Here II
*Year: 2015
*Genre: Doom Metal
*Country: Italy (IMG:http://metalarea.org/forum/style_images/flags/Italy.png)
*Format: mp3@CBR320kbps
*Size: 110MB

Tracklist:
01. Still Alone 03:49
02. Kiss of Worms 04:15
03. Born to Lose 08:51
04. Black,Grey and White 08:34
05. Acid Rain 05:01
06. Only if... 10:05
07. Shiftless 05:14
******************************
Total playing time: 45:49




Technical info
(IMG:http://metalarea.org/images/spectrogram/2016_Mar/1f4225a16c95c8316880d24d793d7075.png)
Input File: 02. Kiss Of Worms.mp3
Channels : 2
Sample Rate : 44100
Precision : 16-bit
Duration : 00:04:15.53 = 11268873 samples = 19164.8 CDDA sectors
File Size : 10.7M
Bit Rate : 336k
Sample Encoding: MPEG audio (layer I, II or III)
Comments :
Title=Kiss Of Worms
Artist=Strange Here
Album=Strange Here II
Tracknumber=02/07
Year=2015



Register


Go to the top of the page
  Insert nick Quick quote
+Quote Post
 
Start new topic
Replies (1 - 1)
Papa666
post Mar 27 2016, 10:39:36
Post #2

Guests team






Register


Go to the top of the page
  Insert nick Quick quote
+Quote Post

Reply to this topicStart new topic
1 User(s) are reading this topic (1 Guests and 0 Anonymous Users)
0 Members:

 



- Lo-Fi Version Support form
Copyrights and abuse reports form
Time is now: 13th August 2020 - 12:32:32