Welcome Guest ( Log In | Register )

> Metaplasia & Ecthyma Gangrenosum - Metaplasia/Ecthyma Gangrenosum [split] (2016), Goregrind | Goregrind
post Apr 5 2016, 13:32:02
Post #1

Serial Uploader
Group Icon
Group: V.I.P
Posts: 33,137
Releases: 31421
From: Lithuania
On Forums: 10 years 4 months
Thanks: 359281 time(s)
Lithuania


(IMG:https://metalarea.org/images/audiocovers/2016_Apr/acov_tid265306_thumb.jpg)

*Artist: Metaplasia & Ecthyma Gangrenosum
*Album: Metaplasia/Ecthyma Gangrenosum [split]
*Year: 2016
*Genre: Goregrind | Goregrind
*Country: United States (IMG:https://metalarea.org/forum/style_images/flags/United%20States.png) | Russian Federation (IMG:https://metalarea.org/forum/style_images/flags/Russian%20Federation.png)
*Format: mp3@CBR320kbps
*Size: 25MB

Tracklist:
Metaplasia:
01. Fetal Splenic Artery And Middle Cerebral Artery Doppler Velocimetry 00:46
02. Pathology Of The Stillborn Infant For The General Pathologist 01:14
03. Fetal Alcohol Exposure And Mammary Tumorigenesis In Offspring 01:22
04. Prenatal Diagnosis Of Congenital Hallux Varus Deformity 01:24
Ecthyma Gangrenosum:
05. 7 Untitled Traxx 05:47
******************************
Total playing time: 10:33



(IMG:https://metalarea.org/images/youtube.png)

Technical info
(IMG:https://metalarea.org/images/spectrogram/2016_Apr/cc7939ae8b49adcc2944b5c2e7a8a728.png)
Input File: 05. 7 Untitled Traxx.mp3
Channels : 2
Sample Rate : 44100
Precision : 16-bit
Duration : 00:05:47.10 = 15306890 samples = 26032.1 CDDA sectors
File Size : 14.1M
Bit Rate : 324k
Sample Encoding: MPEG audio (layer I, II or III)
Comments :
Title=Ecthyma Gangrenosum - 7 untitled traxx
Artist=Ecthyma Gangrenosum
Album=split w Metaplasia
Tracknumber=5
Year=2016



Register


Go to the top of the page
  Insert nick Quick quote
+Quote Post
 
Start new topic
Replies (1 - 3)
post Apr 28 2018, 02:23:45
Post #2

Split Backup Copy
**************
Group: Металариец
Posts: 5,032
Releases: 243
From: с. Мизоново, Ишимский Район, Тюменская область
On Forums: 10 years 10 months
Thanks: 3323 time(s)
Russian Federation


Reupload please
Go to the top of the page
  Insert nick Quick quote
+Quote Post
post Jul 11 2018, 22:05:39
Post #3

Split Backup Copy
**************
Group: Металариец
Posts: 5,032
Releases: 243
From: с. Мизоново, Ишимский Район, Тюменская область
On Forums: 10 years 10 months
Thanks: 3323 time(s)
Russian Federation


Перезалейте, пожалуйста.
Go to the top of the page
  Insert nick Quick quote
+Quote Post
post Sep 12 2018, 01:37:28
Post #4

Split Backup Copy
**************
Group: Металариец
Posts: 5,032
Releases: 243
From: с. Мизоново, Ишимский Район, Тюменская область
On Forums: 10 years 10 months
Thanks: 3323 time(s)
Russian Federation


Reupload please
Go to the top of the page
  Insert nick Quick quote
+Quote Post

Reply to this topicStart new topic
2 User(s) are reading this topic (2 Guests and 0 Anonymous Users)
0 Members:

 



- Lo-Fi Version Support form
Copyrights and abuse reports form
Time is now: 20th October 2018 - 14:18:38