Welcome Guest ( Log In | Register )

> Правила / Rules

Тут только для чтения лежат низкобитрейтные (<192kbps) релизы, для которых есть аналоги в высокобитрейтных форумах.

Here goes (and stand in read only mode) low bitrate releases (<192kbps) which were already replaced by high bitrate releases in corresponding forums.

> Solinaris - Deranged (2016), Avant-garde/Technical Progressive Death Metal
post Apr 5 2016, 17:26:44
Post #1

Правь статус, ####!111
**************
Group: Металариец
Posts: 17,774
Releases: 12047
From: Г.Харьков
On Forums: 7 years 2 months
Thanks: 202355 time(s)
Unknown


(IMG:http://metalarea.org/images/audiocovers/2016_Apr/acov_tid265320_thumb.png)

*Artist: Solinaris
*Album: Deranged
*Year: 2016
*Genre: Avant-garde/Technical Progressive Death Metal
*Country: Canada (IMG:http://metalarea.org/forum/style_images/flags/Canada.png)
*Format: mp3@CBR320kbps
*Size: 86MB

Tracklist:
1. Intro
2. Deranged
3. Torture Chronicles
4. Blind
5. Murder
6. Chloroform
7. Field Of Trees
8. November
9. Phobopath
10. Red Rain
******************************
Total playing time: 49:40



Extended info
В Лоуbitrait 192/320 kpbs


Technical info
(IMG:http://metalarea.org/images/spectrogram/2016_Apr/45dc63feef932f8aed06a388d6a48192.png)
Input File: 03 - Torture Chronicles.mp3
Channels : 2
Sample Rate : 44100
Precision : 16-bit
Duration : 00:04:10.50 = 11046874 samples = 18787.2 CDDA sectors
File Size : 6.14M
Bit Rate : 196k
Sample Encoding: MPEG audio (layer I, II or III)
Comments :
Title=Torture Chronicles
Artist=Solinaris
Album=Deranged
Tracknumber=3
Year=2016
Genre=Death Metal



Register


Go to the top of the page
  Insert nick Quick quote
+Quote Post
 
Start new topic
Replies (1 - 2)
post Apr 7 2016, 08:54:35
Post #2

К = 8,29
**************
Group: Металариец
Posts: 6,199
Releases: 17
From: Минск
On Forums: 10 years 6 months
Thanks: 5486 time(s)
Belarus


А чё тут думать, вон какой бас красивый. Звучок чистый, с мелодиями потом разбираться будем.
Go to the top of the page
  Insert nick Quick quote
+Quote Post
post Apr 8 2016, 18:04:37
Post #3

Group: Подсевший
Posts: 42
Releases: 3
From: Київ
On Forums: 11 years 4 months
Thanks: 55 time(s)
Ukraine


Такой вкусный шоколадный торт, не хватает только вафельной прослойки в виде хорошего качества, ну чо, подождем.
Go to the top of the page
  Insert nick Quick quote
+Quote Post

Причина закрытия (Funeral Frost 13-06-2017):
Closed TopicStart new topic
1 User(s) are reading this topic (1 Guests and 0 Anonymous Users)
0 Members:

 



- Lo-Fi Version Support form
Copyrights and abuse reports form
Time is now: 19th July 2019 - 15:41:17